Різдвяний шректакль віслюка / Donkey's Christmas Shrektacular (2010) Remux 1080p Ukr/Eng | Sub Eng

Нові коментарі

Нова тема   Відповісти
Останній раз роздавалося jarkos (2020-11-28)
Автор Повідомлення
Anonymous 







2020-10-12 00:05  
Різдвяний шректакль віслюка / Donkey's Christmas Shrektacular (2010) Remux 1080p Ukr/Eng | Sub Eng

Різдвяний шректакль віслюка / Donkey's Christmas Shrektacular (2010) Remux 1080p Ukr/Eng | Sub Eng


Жанр: анімація, дитячий, сімейний
Країна: США
Кінокомпанія: DreamWorks Animation
Режисер: Волт Дорн / Walt Dohrn, Раман Гуі / Raman Hui
Актори: Майк Маєрс / Mike Myers, Едді Мерфі / Eddie Murphy, Камерон Діаз / Cameron Diaz, Антоніо Бандерас / Antonio Banderas, Волт Дорн / Walt Dohrn та інші

Сюжет:
Що може бути краще ніж зібратися на Різдво всім друзям будинку біля теплого каміна? Залиште свої телевізори включеними, накривайте Різдвяний стіл і в той же час поглядайте в бік телевізора, це допоможе вам створити неймовірну атмосферу свята разом з вашими улюбленими мульт-персонажами, а їх тут більше 25.

Тривалість: 00:07:46
Якість: Remux

Відео:
кодек:
розмір кадру: 1920 x 1080
бітрейт: 23 628 кб/с

Аудіо # 1:
мова: українська
переклад: професійний дубльований
кодек: AC-3 2.0
бітрейт: 192 кб/с

Аудіо # 2:
мова: англійська
переклад: оригінал
кодек: -HD MA 7.1
бітрейт: 4209 кб/с

Субтитри # 1-3: (Music, Full, SDH)
мова: англійська
тип: програмні (м'які)
формат: *.srt


Info
Код:
General
Unique ID                                : 41454065959165114137720626884997102713 (0x1F2FC33FF653CFD4472025AF4C9D3C79)
Complete name                            : Donkey's Christmas Shrektacular (2010) Remux 1080p [UKR_ENG] [Hurtom].
Format                                   :
Format version                           : Version 4
File size                                : 1.52 GiB
Duration                                 : 7 min 46 s
Overall bit rate mode                    : Variable
Overall bit rate                         : 28.0 Mb/s
Movie name                               : Різдвяний шректакль віслюка / Donkey's Christmas Shrektacular (2010)
Encoded date                             : UTC 2020-10-11 20:50:17
Writing application                      : v20.0.0 ('I Am The Sun') 64-bit
Writing library                          : libebml v1.3.5 + v1.4.8
Cover                                    : Yes
Attachments                              : Cover.jpg

Video
ID                                       : 1
Format                                   : AVC
Format/Info                              : Advanced Video Codec
Format profile                           : [email protected]
Format settings                          : CABAC / 4 Ref Frames
Format settings, CABAC                   : Yes
Format settings, Reference frames        : 4 frames
Codec ID                                 : V_MPEG4/ISO/AVC
Duration                                 : 7 min 46 s
Bit rate mode                            : Variable
Bit rate                                 : 23.6 Mb/s
Maximum bit rate                         : 36.0 Mb/s
Width                                    : 1 920 pixels
Height                                   : 1 080 pixels
Display aspect ratio                     : 16:9
Frame rate mode                          : Constant
Frame rate                               : 23.976 (24000/1001) FPS
Color space                              : YUV
Chroma subsampling                       : 4:2:0
Bit depth                                : 8 bits
Scan type                                : Progressive
Bits/(Pixel*Frame)                       : 0.475
Stream size                              : 1.28 GiB (84%)
Title                                    : Різдвяний шректакль віслюка / Donkey's Christmas Shrektacular (2010)
Language                                 : English
Default                                  : Yes
Forced                                   : No

Audio #1
ID                                       : 2
Format                                   : AC-3
Format/Info                              : Audio Coding 3
Commercial name                          : Dolby Digital
Codec ID                                 : A_AC3
Duration                                 : 7 min 46 s
Bit rate mode                            : Constant
Bit rate                                 : 192 kb/s
Channel(s)                               : 2 channels
Channel layout                           : L R
Sampling rate                            : 48.0 kHz
Frame rate                               : 31.250 FPS (1536 SPF)
Compression mode                         : Lossy
Stream size                              : 10.7 MiB (1%)
Title                                    : / 2.0 Ch / 192 kbps / DUB / TET
Language                                 : Ukrainian
Service kind                             : Complete Main
Default                                  : Yes
Forced                                   : Yes

Audio #2
ID                                       : 3
Format                                   : XLL
Format/Info                              : Digital Theater Systems
Commercial name                          : -HD Master Audio
Codec ID                                 : A_DTS
Duration                                 : 7 min 46 s
Bit rate mode                            : Variable
Bit rate                                 : 4 205 kb/s
Channel(s)                               : 8 channels
Channel layout                           : C L R LFE Lb Rb Lss Rss
Sampling rate                            : 48.0 kHz
Frame rate                               : 93.750 FPS (512 SPF)
Bit depth                                : 24 bits
Compression mode                         : Lossless
Stream size                              : 234 MiB (15%)
Title                                    : -HD MA / 5.1 Ch / 4200 kbps / Original
Language                                 : English
Default                                  : No
Forced                                   : No

Text #1
ID                                       : 4
Format                                   : UTF-8
Codec ID                                 : S_TEXT/UTF8
Codec ID/Info                            : UTF-8 Plain Text
Duration                                 : 4 min 28 s
Bit rate                                 : 64 b/s
Count of elements                        : 58
Stream size                              : 2.13 KiB (0%)
Title                                    : Music
Language                                 : English
Default                                  : No
Forced                                   : No

Text #2
ID                                       : 5
Format                                   : UTF-8
Codec ID                                 : S_TEXT/UTF8
Codec ID/Info                            : UTF-8 Plain Text
Duration                                 : 5 min 5 s
Bit rate                                 : 95 b/s
Count of elements                        : 98
Stream size                              : 3.56 KiB (0%)
Title                                    : Full
Language                                 : English
Default                                  : No
Forced                                   : No

Text #3
ID                                       : 6
Format                                   : UTF-8
Codec ID                                 : S_TEXT/UTF8
Codec ID/Info                            : UTF-8 Plain Text
Duration                                 : 5 min 8 s
Bit rate                                 : 109 b/s
Count of elements                        : 104
Stream size                              : 4.14 KiB (0%)
Title                                    : SDH
Language                                 : English
Default                                  : No
Forced                                   : No
Світлини




Джерело: &
Особиста оцінка: 0 - не дивився


 Трекер:    Зареєстрований   

Завантажити / скачати фільм українською



відео для новачків



 Зареєстрований:   2020-10-12 00:05
 Розмір:   1.52 GB 
 Оцінка фільму:   10/10 (Голосів: 3)
   
Ваш часовий пояс: GMT + 2 Години

Нова тема   Відповісти