Обшрекатися від переляку (Налякані до шрекавки) / Scared Shrekless (2010) Remux 1080p 2хUkr/Eng | Sub Eng

Нові коментарі

Нова тема   Відповісти
Останній раз роздавалося turba (2020-11-25)
Автор Повідомлення
Anonymous 







2020-10-11 23:58  
Обшрекатися від переляку (Налякані до шрекавки) / Scared Shrekless (2010) Remux 1080p 2хUkr/Eng | Sub Eng

Обшрекатися від переляку (Налякані до шрекавки) / Scared Shrekless (2010) Remux 1080p 2хUkr/Eng | Sub Eng


Жанр: анімація, дитячий, сімейний
Країна: США
Кінокомпанія: DreamWorks Animation
Режисер: Ґері Труздейл / Gary Trousdale, Раман Гуі / Raman Hui
Актори: Майк Маєрс / Mike Myers, Камерон Діаз / Cameron Diaz, Антоніо Бандерас / Antonio Banderas, Дін Едвардс / Dean Edwards, Коуді Камерон / Cody Cameron, Крістофер Найтс / Christopher Knights, Конрад Вернон / Conrad Vernon, Арон Ворнер / Aron Warner та інші

Сюжет:
Спеціальний показ Шрека, присвячений до Гелловіну. Гелловін – його улюблене свято, й у цьому році він планує ніч лякань у притаманному до людоїдів стилю. Шрек підбиває Фіону, Віслюка, Кота у чоботях та інших казкових персонажів провести ніч у колишньому замку лорда Фаркуада й порозповідати страшилки. Останній, хто обшрекається від переляку, переможе.

Тривалість: 00:25:32
Якість: Remux

Відео:
кодек:
розмір кадру: 1920 x 1080
бітрейт: 27 153 кб/с

Аудіо # 1:
мова: українська
переклад: професійний дубльований ,
кодек: AC-3 2.0
бітрейт: 192 кб/с

Аудіо # 2:
мова: українська
переклад: багатоголосий закадровий | VSTeam Creative Group та Filiza Studio
кодек: 5.1
бітрейт: 384 кб/с

Аудіо # 3:
мова: англійська
переклад: оригінал
кодек: -HD MA 7.1
бітрейт: 4734 кб/с

Субтитри # 1-2: (Full, SDH)
мова: англійська
тип: програмні (м'які)
формат: *.srt


Info
Код:
General
Unique ID                                : 283205137447053922658610220680728826899 (0xD50F53516F8275C3974BCC7B95B85413)
Complete name                            : Scared Shrekless (2010) Remux 1080p [2xUKR_ENG] [Hurtom].
Format                                   :
Format version                           : Version 4
File size                                : 5.79 GiB
Duration                                 : 25 min 32 s
Overall bit rate mode                    : Variable
Overall bit rate                         : 32.5 Mb/s
Movie name                               : Обшрекатися від переляку (Налякані до шрекавки) / Scared Shrekless (2010)
Encoded date                             : UTC 2020-10-11 20:57:04
Writing application                      : v20.0.0 ('I Am The Sun') 64-bit
Writing library                          : libebml v1.3.5 + v1.4.8
Cover                                    : Yes
Attachments                              : Cover.jpg / cover.jpg

Video
ID                                       : 1
Format                                   : AVC
Format/Info                              : Advanced Video Codec
Format profile                           : [email protected]
Format settings                          : CABAC / 4 Ref Frames
Format settings, CABAC                   : Yes
Format settings, Reference frames        : 4 frames
Codec ID                                 : V_MPEG4/ISO/AVC
Duration                                 : 25 min 32 s
Bit rate mode                            : Variable
Bit rate                                 : 27.2 Mb/s
Maximum bit rate                         : 38.0 Mb/s
Width                                    : 1 920 pixels
Height                                   : 1 080 pixels
Display aspect ratio                     : 16:9
Frame rate mode                          : Constant
Frame rate                               : 23.976 (24000/1001) FPS
Color space                              : YUV
Chroma subsampling                       : 4:2:0
Bit depth                                : 8 bits
Scan type                                : Progressive
Bits/(Pixel*Frame)                       : 0.546
Stream size                              : 4.84 GiB (84%)
Title                                    : Обшрекатися від переляку (Налякані до шрекавки) / Scared Shrekless (2010)
Language                                 : English
Default                                  : Yes
Forced                                   : No

Audio #1
ID                                       : 2
Format                                   : AC-3
Format/Info                              : Audio Coding 3
Commercial name                          : Dolby Digital
Codec ID                                 : A_AC3
Duration                                 : 25 min 32 s
Bit rate mode                            : Constant
Bit rate                                 : 192 kb/s
Channel(s)                               : 2 channels
Channel layout                           : L R
Sampling rate                            : 48.0 kHz
Frame rate                               : 31.250 FPS (1536 SPF)
Compression mode                         : Lossy
Stream size                              : 35.1 MiB (1%)
Title                                    : / 2.0 Ch / 192 kbps / DUB / Novy Kanal
Language                                 : Ukrainian
Service kind                             : Complete Main
Default                                  : Yes
Forced                                   : Yes

Audio #2
ID                                       : 3
Format                                   : LC
Format/Info                              : Advanced Audio Codec Low Complexity
Codec ID                                 : A_AAC-2
Duration                                 : 25 min 32 s
Bit rate                                 : 384 kb/s
Channel(s)                               : 6 channels
Channel layout                           : C L R Ls Rs LFE
Sampling rate                            : 48.0 kHz
Frame rate                               : 46.875 FPS (1024 SPF)
Compression mode                         : Lossy
Stream size                              : 69.7 MiB (1%)
Title                                    : / 5.1 Ch / 384 kbps / MVO / VSTeam & Filiza Studio
Language                                 : Ukrainian
Default                                  : No
Forced                                   : No

Audio #3
ID                                       : 4
Format                                   : XLL
Format/Info                              : Digital Theater Systems
Commercial name                          : -HD Master Audio
Codec ID                                 : A_DTS
Duration                                 : 25 min 32 s
Bit rate mode                            : Variable
Bit rate                                 : 4 730 kb/s
Channel(s)                               : 8 channels
Channel layout                           : C L R LFE Lb Rb Lss Rss
Sampling rate                            : 48.0 kHz
Frame rate                               : 93.750 FPS (512 SPF)
Bit depth                                : 24 bits
Compression mode                         : Lossless
Stream size                              : 864 MiB (15%)
Title                                    : -HD MA / 5.1 Ch / 3468 kbps / Original
Language                                 : English
Default                                  : No
Forced                                   : No

Text #1
ID                                       : 5
Format                                   : UTF-8
Codec ID                                 : S_TEXT/UTF8
Codec ID/Info                            : UTF-8 Plain Text
Duration                                 : 20 min 42 s
Bit rate                                 : 82 b/s
Count of elements                        : 381
Stream size                              : 12.6 KiB (0%)
Title                                    : Full
Language                                 : English
Default                                  : No
Forced                                   : No

Text #2
ID                                       : 6
Format                                   : UTF-8
Codec ID                                 : S_TEXT/UTF8
Codec ID/Info                            : UTF-8 Plain Text
Duration                                 : 21 min 1 s
Bit rate                                 : 97 b/s
Count of elements                        : 465
Stream size                              : 15.0 KiB (0%)
Title                                    : SDH
Language                                 : English
Default                                  : No
Forced                                   : No

Menu
00:00:00.000                             : en:Chapter 1
00:05:04.554                             : en:Chapter 2
00:11:29.939                             : en:Chapter 3
00:14:41.130                             : en:Chapter 4
00:21:01.469                             : en:Chapter 5
Світлини




Джерело: &
Особиста оцінка: 0 - не дивився


 Трекер:    Зареєстрований   

Завантажити / скачати фільм українською



відео для новачків



 Зареєстрований:   2020-10-11 23:58
 Розмір:   5.79 GB 
 Оцінка фільму:   10/10 (Голосів: 2)
   
bot 
робот


З нами з: 30.09.07
Востаннє: 26.05.05
Повідомлень: 26418

2020-10-12 00:03  
Тему перенесено з Короткометражні до форуму Короткометражні


-Star-Lord-

Ваш часовий пояс: GMT + 2 Години

Нова тема   Відповісти