Дід Мороз, зелений ніс / Shrek the Halls (2007) Remux 1080p Ukr/Eng | Sub Eng

Нові коментарі

Нова тема   Відповісти
Автор Повідомлення
Anonymous 







2020-10-11 23:52  
Дід Мороз, зелений ніс / Shrek the Halls (2007) Remux 1080p Ukr/Eng | Sub Eng

Дід Мороз, зелений ніс / Shrek the Halls (2007) Remux 1080p Ukr/Eng | Sub Eng


Жанр: анімація, дитячий, сімейний
Країна: США
Кінокомпанія: DreamWorks Animation, DreamWorks SKG, Pacific Data Images (PDI)
Режисер: Ґері Труздейл / Gary Trousdale
Актори: Майк Маєрс / Mike Myers, Едді Мерфі / Eddie Murphy, Камерон Діаз / Cameron Diaz, Антоніо Бандерас / Antonio Banderas, Шон Бішоп / Sean Bishop, Коуді Камерон / Cody Cameron та інші

Сюжет:
На цей раз Шрек прагне влаштувати ідеальне Різдво для своєї родини, щоб приємно здивувати кохану Фіону і своїх чудових діточок. Та от незадача: Шрек ніколи раніше не святкував Різдва і не знає як це правильно робити. На допомогу йому приходить книжка "Різдво для сільських дурбеликів" і, звичайно, Осел, Кіт у чоботях і вся чесна компанія. А ось що з цього вийшло...

Тривалість: 00:28:01
Якість: Remux

Відео:
кодек:
розмір кадру: 1920 x 1080
бітрейт: 33 773 кб/с

Аудіо # 1:
мова: українська
переклад: професійний дубльований
кодек: AC-3 5.1
бітрейт: 384 кб/с

Аудіо # 2:
мова: англійська
переклад: оригінал
кодек: -HD MA 5.1
бітрейт: 4000 кб/с

Субтитри # 1: (Full)
мова: українська
тип: програмні (м'які)
формат: *.srt

Субтитри # 2-3: (Full, SDH)
мова: англійська
тип: програмні (м'які)
формат: *.srt


Info
Код:
General
Unique ID                                : 274734792053459030101534381796132400664 (0xCEAFFF0C1478EBA55BBC40A8611C2E18)
Complete name                            : Shrek the Halls (2007) Remux 1080p [UKR_ENG] [Hurtom].
Format                                   :
Format version                           : Version 4
File size                                : 7.47 GiB
Duration                                 : 28 min 1 s
Overall bit rate mode                    : Variable
Overall bit rate                         : 38.2 Mb/s
Movie name                               : Дід Мороз, зелений ніс / Shrek the Halls (2007)
Encoded date                             : UTC 2020-10-11 21:15:49
Writing application                      : v20.0.0 ('I Am The Sun') 64-bit
Writing library                          : libebml v1.3.5 + v1.4.8
Cover                                    : Yes
Attachments                              : Cover.jpg

Video
ID                                       : 1
Format                                   : AVC
Format/Info                              : Advanced Video Codec
Format profile                           : [email protected]
Format settings                          : CABAC / 4 Ref Frames
Format settings, CABAC                   : Yes
Format settings, Reference frames        : 4 frames
Codec ID                                 : V_MPEG4/ISO/AVC
Duration                                 : 28 min 1 s
Bit rate mode                            : Variable
Bit rate                                 : 33.8 Mb/s
Maximum bit rate                         : 36.0 Mb/s
Width                                    : 1 920 pixels
Height                                   : 1 080 pixels
Display aspect ratio                     : 16:9
Frame rate mode                          : Constant
Frame rate                               : 23.976 (24000/1001) FPS
Color space                              : YUV
Chroma subsampling                       : 4:2:0
Bit depth                                : 8 bits
Scan type                                : Progressive
Bits/(Pixel*Frame)                       : 0.679
Stream size                              : 6.61 GiB (89%)
Title                                    : Дід Мороз, зелений ніс / Shrek the Halls (2007)
Language                                 : English
Default                                  : Yes
Forced                                   : No

Audio #1
ID                                       : 2
Format                                   : AC-3
Format/Info                              : Audio Coding 3
Commercial name                          : Dolby Digital
Codec ID                                 : A_AC3
Duration                                 : 28 min 1 s
Bit rate mode                            : Constant
Bit rate                                 : 384 kb/s
Channel(s)                               : 6 channels
Channel layout                           : L R C LFE Ls Rs
Sampling rate                            : 48.0 kHz
Frame rate                               : 31.250 FPS (1536 SPF)
Compression mode                         : Lossy
Stream size                              : 77.0 MiB (1%)
Title                                    : / 5.1 Ch / 384 kbps / DUB / DVD
Language                                 : Ukrainian
Service kind                             : Complete Main
Default                                  : Yes
Forced                                   : Yes

Audio #2
ID                                       : 3
Format                                   : XLL
Format/Info                              : Digital Theater Systems
Commercial name                          : -HD Master Audio
Codec ID                                 : A_DTS
Duration                                 : 28 min 1 s
Bit rate mode                            : Variable
Bit rate                                 : 3 996 kb/s
Channel(s)                               : 6 channels
Channel layout                           : C L R Ls Rs LFE
Sampling rate                            : 48.0 kHz
Frame rate                               : 93.750 FPS (512 SPF)
Bit depth                                : 24 bits
Compression mode                         : Lossless
Stream size                              : 801 MiB (10%)
Title                                    : -HD MA / 5.1 Ch / 4331 kbps / Original
Language                                 : English
Default                                  : No
Forced                                   : No

Text #1
ID                                       : 4
Format                                   : UTF-8
Codec ID                                 : S_TEXT/UTF8
Codec ID/Info                            : UTF-8 Plain Text
Duration                                 : 21 min 2 s
Bit rate                                 : 123 b/s
Count of elements                        : 353
Stream size                              : 19.0 KiB (0%)
Title                                    : Full
Language                                 : Ukrainian
Default                                  : No
Forced                                   : No

Text #2
ID                                       : 5
Format                                   : UTF-8
Codec ID                                 : S_TEXT/UTF8
Codec ID/Info                            : UTF-8 Plain Text
Duration                                 : 20 min 54 s
Bit rate                                 : 87 b/s
Count of elements                        : 340
Stream size                              : 13.3 KiB (0%)
Title                                    : Full
Language                                 : English
Default                                  : No
Forced                                   : No

Text #3
ID                                       : 6
Format                                   : UTF-8
Codec ID                                 : S_TEXT/UTF8
Codec ID/Info                            : UTF-8 Plain Text
Duration                                 : 21 min 7 s
Bit rate                                 : 95 b/s
Count of elements                        : 375
Stream size                              : 14.8 KiB (0%)
Title                                    : SDH
Language                                 : English
Default                                  : No
Forced                                   : No

Menu
00:00:00.000                             : en:Chapter 1
00:21:32.958                             : en:Chapter 2
Світлини




Джерело: &
Особиста оцінка: 0 - не дивився


 Трекер:    Зареєстрований   

Завантажити / скачати фільм українською



відео для новачків



 Зареєстрований:   2020-10-11 23:52
 Розмір:   7.47 GB 
 Оцінка фільму:   10/10 (Голосів: 2)
   
Ваш часовий пояс: GMT + 2 Години

Нова тема   Відповісти