Ідол Закрайсвіття / Far Far Away Idol (2004) 1080p Ukr/Eng | Sub Eng

Нові коментарі

Нова тема   Відповісти
Останній раз роздавалося Oleksa1715 (2021-01-16)
Автор Повідомлення
Anonymous 







2020-10-11 23:48  
Ідол Закрайсвіття / Far Far Away Idol (2004) 1080p Ukr/Eng | Sub Eng

Ідол Закрайсвіття / Far Far Away Idol (2004) 1080p Ukr/Eng | Sub Eng


Жанр: анімація, дитячий, сімейний
Країна: США
Кінокомпанія: DreamWorks Animation
Режисер: Саймон Дж. Сміт / Simon J. Smith
Актори: Майк Маєрс / Mike Myers, Едді Мерфі / Eddie Murphy, Камерон Діаз / Cameron Diaz, Антоніо Бандерас / Antonio Banderas Саймон Коуелл / Simon Cowell, Кріс Міллер / Chris Miller, Ларрі Кінг / Larry King та інші

Сюжет:
Пародія на популярне ТВ-шоу «Американський ідол». У конкурсі на кращого виконавця Тридев'ятого королівства беруть участь Шрек, Фіона, Осел, Кіт у чоботях, Капітан Крюк, Доріс і багато інших казкових персонажів. Вибір переможця обіцяє бути непередбачуваним, адже кожен з учасників підготував свій кращий музичний номер.

Тривалість: 00:06:52
Якість:

Відео:
кодек:
розмір кадру: 1912 x 1072
бітрейт: 5 115 кб/с

Аудіо # 1:
мова: українська
переклад: професійний дубльований
кодек: AC-3 2.0
бітрейт: 192 кб/с

Аудіо # 2:
мова: англійська
переклад: оригінал
кодек: AC-3 5.1
бітрейт: 384 кб/с

Субтитри # 1: (SDH)
мова: англійська
тип: програмні (м'які)
формат: *.srt


Info
Код:
General
Unique ID                                : 306713996524858079044876137289009883684 (0xE6BEF78F14B34EB0DBBE559CE0786A24)
Complete name                            : Far Far Away Idol (2004) 1080p [UKR_ENG] [Hurtom].
Format                                   :
Format version                           : Version 4
File size                                : 280 MiB
Duration                                 : 6 min 52 s
Overall bit rate                         : 5 697 kb/s
Movie name                               : Ідол Закрайсвіття / Far Far Away Idol (2004)
Encoded date                             : UTC 2020-10-11 21:36:30
Writing application                      : v20.0.0 ('I Am The Sun') 64-bit
Writing library                          : libebml v1.3.5 + v1.4.8
Cover                                    : Yes
Attachments                              : Cover.jpg

Video
ID                                       : 1
Format                                   : AVC
Format/Info                              : Advanced Video Codec
Format profile                           : [email protected]
Format settings                          : CABAC / 4 Ref Frames
Format settings, CABAC                   : Yes
Format settings, Reference frames        : 4 frames
Codec ID                                 : V_MPEG4/ISO/AVC
Duration                                 : 6 min 52 s
Bit rate                                 : 5 115 kb/s
Width                                    : 1 912 pixels
Height                                   : 1 072 pixels
Display aspect ratio                     : 16:9
Frame rate mode                          : Constant
Frame rate                               : 23.976 (23976/1000) FPS
Color space                              : YUV
Chroma subsampling                       : 4:2:0
Bit depth                                : 8 bits
Scan type                                : Progressive
Bits/(Pixel*Frame)                       : 0.104
Stream size                              : 252 MiB (90%)
Title                                    : Ідол Закрайсвіття / Far Far Away Idol (2004)
Language                                 : English
Default                                  : Yes
Forced                                   : No
Color range                              : Limited
Color primaries                          : BT.709
Transfer characteristics                 : BT.709
Matrix coefficients                      : BT.709

Audio #1
ID                                       : 2
Format                                   : AC-3
Format/Info                              : Audio Coding 3
Commercial name                          : Dolby Digital
Codec ID                                 : A_AC3
Duration                                 : 6 min 52 s
Bit rate mode                            : Constant
Bit rate                                 : 192 kb/s
Channel(s)                               : 2 channels
Channel layout                           : L R
Sampling rate                            : 48.0 kHz
Frame rate                               : 31.250 FPS (1536 SPF)
Compression mode                         : Lossy
Stream size                              : 9.45 MiB (3%)
Title                                    : / 2.0 Ch / 192 kbps / DUB / TET
Language                                 : Ukrainian
Service kind                             : Complete Main
Default                                  : Yes
Forced                                   : Yes

Audio #2
ID                                       : 3
Format                                   : AC-3
Format/Info                              : Audio Coding 3
Commercial name                          : Dolby Digital
Codec ID                                 : A_AC3
Duration                                 : 6 min 52 s
Bit rate mode                            : Constant
Bit rate                                 : 384 kb/s
Channel(s)                               : 6 channels
Channel layout                           : L R C LFE Ls Rs
Sampling rate                            : 48.0 kHz
Frame rate                               : 31.250 FPS (1536 SPF)
Compression mode                         : Lossy
Stream size                              : 18.9 MiB (7%)
Title                                    : / 5.1 Ch / 384 kbps / Original
Language                                 : English
Service kind                             : Complete Main
Default                                  : No
Forced                                   : No

Text
ID                                       : 4
Format                                   : UTF-8
Codec ID                                 : S_TEXT/UTF8
Codec ID/Info                            : UTF-8 Plain Text
Duration                                 : 5 min 59 s
Bit rate                                 : 93 b/s
Count of elements                        : 119
Stream size                              : 4.10 KiB (0%)
Title                                    : SDH
Language                                 : English
Default                                  : No
Forced                                   : No
Світлини




Джерело: &
Особиста оцінка: 0 - не дивився


Срібний реліз (на рейтинг впливає 50% завантаженого)
 Трекер:    Зареєстрований   

Завантажити / скачати фільм українською



відео для новачків



 Зареєстрований:   2020-10-11 23:48
 Розмір:   280 MB 
 Оцінка фільму:   10/10 (Голосів: 2)
   
Ваш часовий пояс: GMT + 2 Години

Нова тема   Відповісти