Формула 1. Сезон 2020. Етап 11. Гран-Прі Айфеля. Гонка (11.10.2020) 1080p 2xUkr/Eng/Int

Нові коментарі

Нова тема   Відповісти
Автор Повідомлення
sergiyko.5 
VIP


З нами з: 25.02.16
Востаннє: 27.10.20
Повідомлень: 3632

2020-10-11 17:08  
Формула 1. Сезон 2020. Етап 11. Гран-Прі Айфеля. Гонка (11.10.2020) 1080p 2xUkr/Eng/Int


Формула 1. Сезон 2020. Етап 11. Гран-Прі Айфеля. Гонка (11.10.2020) 1080p 2xUkr/Eng/Int

Жанр: Перегони Формули 1
Країна: Німеччина
Телеканал: F1TV
Коментар: Максим Подзігун, Роман Гончаров, англійською

Опис:
Гонка одинадцятого етапу Гран-Прі Айфеля 2020 року.


Якість:

Відео: кодек: розмір кадру: 1920 х 1080 бітрейт: 5500 кб/с 25 кад/с
Аудіо 1: мова: українська кодек: 2.0 бітрейт: 192 кб/с
Аудіо 2: мова: українська кодек: 2.0 бітрейт: 192 кб/с
Аудіо 3: мова: англійська кодек: 2.0 бітрейт: 192 кб/с
Аудіо 4: мова: - кодек: 2.0 бітрейт: 192 кб/с
Тривалість:
02:18:50
Про файл:
General
Unique ID : 204308811950151832380873878575368982347 (0x99B472256F1BEEF5492D59BED5214F4B)
Complete name : C:\Users\Sergij\Pictures\F1.2020.11.Germany.Race.1080p..Ukr.Eng.Int.
Format :
Format version : Version 4
File size : 6.08 GiB
Duration : 2 h 18 min
Overall bit rate mode : Constant
Overall bit rate : 6 265 kb/s
Encoded date : UTC 2020-10-11 15:27:01
Writing application : v49.0.0 ('Sick Of Losing Soulmates') 64-bit
Writing library : libebml v1.4.0 + v1.6.1

Video
ID : 1
Format : AVC
Format/Info : Advanced Video Codec
Format profile : [email protected]
Format settings : CABAC / 4 Ref Frames
Format settings, CABAC : Yes
Format settings, Reference : 4 frames
Format settings, GOP : M=4, N=50
Codec ID : V_MPEG4/ISO/AVC
Duration : 2 h 18 min
Bit rate mode : Constant
Bit rate : 5 500 kb/s
Width : 1 920 pixels
Height : 1 080 pixels
Display aspect ratio : 16:9
Frame rate mode : Constant
Frame rate : 25.000 FPS
Color space : YUV
Chroma subsampling : 4:2:0
Bit depth : 8 bits
Scan type : Progressive
Bits/(Pixel*Frame) : 0.106
Stream size : 5.33 GiB (88%)
Language : English
Default : Yes
Forced : No

Audio #1
ID : 2
Format : AC-3
Format/Info : Audio Coding 3
Commercial name : Dolby Digital
Codec ID : A_AC3
Duration : 2 h 18 min
Bit rate mode : Constant
Bit rate : 192 kb/s
Channel(s) : 2 channels
Channel layout : L R
Sampling rate : 48.0 kHz
Frame rate : 31.250 FPS (1536 SPF)
Compression mode : Lossy
Delay relative to video : 8 ms
Stream size : 191 MiB (3%)
Title : Максим Подзігун
Language : Ukrainian
Service kind : Complete Main
Default : Yes
Forced : Yes

Audio #2
ID : 3
Format : AC-3
Format/Info : Audio Coding 3
Commercial name : Dolby Digital
Codec ID : A_AC3
Duration : 2 h 18 min
Bit rate mode : Constant
Bit rate : 192 kb/s
Channel(s) : 2 channels
Channel layout : L R
Sampling rate : 48.0 kHz
Frame rate : 31.250 FPS (1536 SPF)
Compression mode : Lossy
Delay relative to video : 8 ms
Stream size : 191 MiB (3%)
Title : Роман Гончаров
Language : Ukrainian
Service kind : Complete Main
Default : No
Forced : No

Audio #3
ID : 4
Format : AC-3
Format/Info : Audio Coding 3
Commercial name : Dolby Digital
Codec ID : A_AC3
Duration : 2 h 18 min
Bit rate mode : Constant
Bit rate : 192 kb/s
Channel(s) : 2 channels
Channel layout : L R
Sampling rate : 48.0 kHz
Frame rate : 31.250 FPS (1536 SPF)
Compression mode : Lossy
Delay relative to video : 8 ms
Stream size : 191 MiB (3%)
Title : Sky Sports F1
Language : English
Service kind : Complete Main
Default : No
Forced : No

Audio #4
ID : 5
Format : AC-3
Format/Info : Audio Coding 3
Commercial name : Dolby Digital
Codec ID : A_AC3
Duration : 2 h 18 min
Bit rate mode : Constant
Bit rate : 192 kb/s
Channel(s) : 2 channels
Channel layout : L R
Sampling rate : 48.0 kHz
Frame rate : 31.250 FPS (1536 SPF)
Compression mode : Lossy
Delay relative to video : 8 ms
Stream size : 191 MiB (3%)
Title : Int
Service kind : Complete Main
Default : No
Forced : No
Скріншоти:


Запис/зведення: sergiyko



Срібний реліз (на рейтинг впливає 50% завантаженого)
 Трекер:    Зареєстрований   

Завантажити / скачати торрент



відео для новачків



 Зареєстрований:   2020-10-11 17:32
 Розмір:   6.08 GB 
 Оцінка:   10/10 (Голосів: 35)
   
bogdem 
Новенький


З нами з: 18.11.16
Востаннє: 25.10.20
Повідомлень: 1

2020-10-11 17:41  
Дякую!
taramon 
Частий відвідувач


З нами з: 28.09.09
Востаннє: 25.10.20
Повідомлень: 45

2020-10-12 07:25  
Merci!
Ваш часовий пояс: GMT + 2 Години

Нова тема   Відповісти