Найгучніший голос (Сезон 1) / The Loudest Voice (Season 1) (2019) 1080р

Нові коментарі

Нова тема   Відповісти
Автор Повідомлення
AdrianZP 
VIP


З нами з: 28.08.14
Востаннє: 04.12.20
Повідомлень: 399

2020-10-10 20:33  
Найгучніший голос (Сезон 1) / The Loudest Voice (Season 1) (2019) 1080р

Найгучніший голос (Сезон 1) / The Loudest Voice (Season 1) (2019) 1080р


Проєкт підготовлено за підтримки fishMD


Жанр: Історичне кіно, драма
Країна: США



Кінокомпанія: Showtime
Режисер: Том Маккарті, Алекс Меткалф
Актори: Рассел Кроу, Саймон Макберні, Наомі Воттс і Сет МакФарлейн

Сюжет:
Міні-серіал розповідає про історію Роджера Ейлза з моменту створення ним телеканалу Fox News, який став одним з найвпливовіших медіа в американській історії. Життя Ейлза і його дітища відображене в контексті терактів 11 вересня 2001 року, президентських виборів 2008 і 2012 років, а також сексуальних звинувачень, що поклали кінець кар'єрі медіаменеджера.


Тривалість: 1 серія: ~50 хв. (цілком серій: 7)
Перелік серій
1. 1995
2. 2001
3. 2008
4. 2009
5. 2012
6. 2015
7. 2016
Якість:
Відео:
кодек:
розмір кадру: 1 920 х 1 036
бітрейт: 6500 кб/с

Аудіо:
мова: українська
переклад: багатоголосий закадровий
кодек: 5.1
бітрейт: 640 кб/с
Info
Цитата:
Format :
Format version : Version 4 / Version 2
File size : 2.55 GiB
Duration : 52 min 4 s
Overall bit rate mode : Constant
Overall bit rate : 7 002 kb/s
Encoded date : UTC 2020-10-10 18:06:31
Writing application : v9.4.0 ('Knurl') 64bit
Writing library : libebml v1.3.4 + v1.4.5
Cover : Yes
Attachments : Cover.jpg

Video
ID : 1
Format : AVC
Format/Info : Advanced Video Codec
Format profile : [email protected]
Format settings, CABAC : Yes
Format settings, ReFrames : 3 frames
Codec ID : V_MPEG4/ISO/AVC
Duration : 52 min 4 s
Bit rate mode : Constant
Bit rate : 6 500 kb/s
Width : 1 920 pixels
Height : 1 036 pixels
Display aspect ratio : 1.85:1
Frame rate mode : Constant
Frame rate : 25.000 FPS
Color space : YUV
Chroma subsampling : 4:2:0
Bit depth : 8 bits
Scan type : Progressive
Bits/(Pixel*Frame) : 0.131
Stream size : 2.31 GiB (91%)
Language : English
Default : Yes
Forced : No
Color range : Limited
Color primaries : BT.709
Transfer characteristics : BT.709
Matrix coefficients : BT.709

Audio
ID : 2
Format : AC-3
Format/Info : Audio Coding 3
Mode extension : CM (complete main)
Format settings, Endianness : Big
Codec ID : A_AC3
Duration : 52 min 4 s
Bit rate mode : Constant
Bit rate : 640 kb/s
Channel(s) : 6 channels
Channel positions : Front: L C R, Side: L R, LFE
Sampling rate : 48.0 kHz
Frame rate : 31.250 FPS (1536 spf)
Compression mode : Lossy
Stream size : 238 MiB (9%)
Title : Озвучка AdrianZP
Language : Ukrainian
Default : Yes
Forced : No
Скріншоти




Озвучення виконано:
Переклад: Dakshina_Kali
Ролі озвучили: Snovyda, Ізмалков, Lomaev, Enelira, AdrianZP
Робота зі звуком: AdrianZP

Особиста оцінка: 10 - без зайвих вагань рекомендую всім!


Авторський реліз (завантажувати можна без реєстрації)
 Трекер:    Зареєстрований   

Завантажити / скачати серіал українською



відео для новачків



 Зареєстрований:   2020-11-17 16:05
 Розмір:   16.46 GB 
 Оцінка серіалу:   10/10 (Голосів: 13)
   
AdrianZP 
VIP


З нами з: 28.08.14
Востаннє: 04.12.20
Повідомлень: 399

2020-10-10 20:34  
ДОДАНО 1 СЕРІЮ!

Done56 
VIP


З нами з: 23.11.15
Востаннє: 05.12.20
Повідомлень: 624

2020-10-10 21:04  
Ходять чутки, що чудовий серіал.
AdrianZP 
VIP


З нами з: 28.08.14
Востаннє: 04.12.20
Повідомлень: 399

2020-10-24 14:30  
ДОДАНО 2-3 СЕРІЮ!

AdrianZP 
VIP


З нами з: 28.08.14
Востаннє: 04.12.20
Повідомлень: 399

2020-11-13 20:24  
ДОДАНО 4 СЕРІЮ!

AdrianZP 
VIP


З нами з: 28.08.14
Востаннє: 04.12.20
Повідомлень: 399

2020-11-14 17:51  
ДОДАНО 5 СЕРІЮ!

AdrianZP 
VIP


З нами з: 28.08.14
Востаннє: 04.12.20
Повідомлень: 399

2020-11-15 17:05  
ДОДАНО 6 СЕРІЮ!

AdrianZP 
VIP


З нами з: 28.08.14
Востаннє: 04.12.20
Повідомлень: 399

2020-11-17 16:04  
ДОДАНО 7 СЕРІЮ

ПРОЄКТ ЗАВЕРШЕНО!

smith&wes 
Новенький


З нами з: 05.10.20
Востаннє: 21.11.20
Повідомлень: 1

2020-11-18 21:29  
Дякую! Подивимось, рейтинг imdb 7,9.
jaguar_arx 
Свій


З нами з: 27.08.12
Востаннє: 05.12.20
Повідомлень: 99

2020-11-29 00:09  
Дуже класний серіал. Зайшов. За суботу подивились з дружиною 4 серії, завтра додивимось до кінця. Випадково на нього натрапив в телеграм каналі "Хороше кіно", але дуже радий що натрапив. Happy
Ваш часовий пояс: GMT + 2 Години

Нова тема   Відповісти