My Little Pony: Життя поні / My Little Pony: Pony Life (Сезон 1) (2020) 1080p

Нові коментарі

Нова тема   Відповісти
Автор Повідомлення
sergiyko.5 
Забанено
Забанено


З нами з: 25.02.16
Востаннє: 29.10.20
Повідомлень: 3648

2020-10-10 21:22  
Всі одноіменні релізи на трекері

My Little Pony: Життя поні / My Little Pony: Pony Life (Сезон 1) (2020) 1080p


My Little Pony: Життя поні / My Little Pony: Pony Life (Сезон 1) (2020) 1080p

Жанр: фентезі, пригоди, комедія, сімейний
Країна: США, Канада, Ірландія
Компанія: DHX Media, Studio B Productions, Hasbro Studios
Режисер: Лорен Фауст, Джейсон Тіссен, Джеймс Вуттон, Джим Міллер, Денні Лу, Тім Стабі
Ролі озвучують: Тара Стронґ, Ешлі Болл, Андреа Лібман, Табіта Сен Жермен, Кеті Візлак, Ніколь Олівер

Сюжет:
My Little Pony: Життя поні - американо-канадський-ірландський анімаційний дитячий мультсеріал заснований на франшизі Hasbro "My Little Pony". Є спін-оффом мультсеріалу Дружба - це диво, що робить його духовним наступником серії 2010 року і другим спін-оффом серіалу після "Дівчата з Еквестрії".




Тривалість: 1 серія: 00:10:11 (цілком серій: 26 з 26)
Якість:

Відео: кодек: розмір кадру: 1920 х 1080 бітрейт: 7000 кб/с
Аудіо #1: мова: українська озвучення: професійне дубльоване кодек: MP2 2.0ch бітрейт: 192 кб/с [ Stereo ]
Аудіо #2: мова: українська озвучення: професійне дубльоване кодек: 2.0ch бітрейт: 128 кб/с [ Stereo ]
Озвучення:

Примітка: україньська доріжка записана з трансляції T2 телеканалу ПлюсПлюс і синхронізована під HD відео.
Перелік серій:
01. Princess Probz
02. The Best of the Worst
03. How Applejack Got Her Hat Back
04. Cute-Pocalypse Meow
05. Bad Thing No. 3
06. Pinkie Pie: Hyper-Helper
07. The Trail Less Trotten-Death of a Sales-Pony
08. Bighoof Walking-The Fluttershy Effect
09. The Fast and the Furriest-Disappearing Act
10. Badge of Shame-Discord's Peak
11. A Camping We Will Go-Campfire Stories
12. Friendship Gems-Dol-FIN-ale
13. Potion Mystery-Sick Day
14. Meet Potion Nova-Pony Surfin' Safari
15. All Bottled Up-All That Jitters
16. I, Cookie-Keynote Pie
17. Ponies of the Moment-One Click Wonder
18. Zound Off-Unboxing Day
19. Don't Look a GIF Horse in the Mouth-The Root of It
20. The Mysterious Voice-The 5 Habits of Highly Effective Ponies
21. Game Knight-Director Spike's Mockumentary
22. Whoof dunnit-Dear Tabby
23.Pie Vs. Pie-Superb Six
24.The Debut Taunt-Flutterdash
25.The Rarity Report-The Great Divide
26.The Great Collide-Sportacular Spectacular Musical Musak-Cular
Про файл:
General
Unique ID : 170699319259497186583107041540552533405 (0x806B7E382FBFB79D3111E164C6D4259D)
Complete name : C:\Users\Sergij\Pictures\My Little Pony. Pony Life S01 1080p \S01E01.Princess Probz.1080p..
Format :
Format version : Version 4
File size : 525 MiB
Duration : 10 min 9 s
Overall bit rate : 7 228 kb/s
Movie name : My Little Pony. Pony Life S01 rip by sergiyko
Encoded date : UTC 2020-10-10 18:18:45
Writing application : v49.0.0 ('Sick Of Losing Soulmates') 64-bit
Writing library : libebml v1.4.0 + v1.6.1

Video
ID : 1
Format : AVC
Format/Info : Advanced Video Codec
Format profile : [email protected]
Format settings : CABAC / 4 Ref Frames
Format settings, CABAC : Yes
Format settings, Reference : 4 frames
Codec ID : V_MPEG4/ISO/AVC
Duration : 10 min 9 s
Bit rate : 6 904 kb/s
Width : 1 920 pixels
Height : 1 080 pixels
Display aspect ratio : 16:9
Frame rate mode : Constant
Frame rate : 25.000 FPS
Color space : YUV
Chroma subsampling : 4:2:0
Bit depth : 8 bits
Scan type : Progressive
Bits/(Pixel*Frame) : 0.133
Stream size : 502 MiB (96%)
Title : S01E01.Princess Probz
Language : English
Default : Yes
Forced : No

Audio #1
ID : 2
Format : MPEG Audio
Format version : Version 1
Format profile : Layer 2
Format settings : Joint stereo / Intensity Stereo + MS Stereo
Codec ID : A_MPEG/L2
Codec ID/Hint : MP2
Duration : 10 min 9 s
Bit rate mode : Constant
Bit rate : 192 kb/s
Channel(s) : 2 channels
Sampling rate : 48.0 kHz
Frame rate : 41.667 FPS (1152 SPF)
Compression mode : Lossy
Stream size : 14.0 MiB (3%)
Title : DUB MP2 2ch | ПлюсПлюс
Language : Ukrainian
Default : Yes
Forced : No

Audio #2
ID : 3
Format : LC
Format/Info : Advanced Audio Codec Low Complexity
Codec ID : A_AAC-2
Duration : 10 min 9 s
Bit rate : 129 kb/s
Channel(s) : 2 channels
Channel layout : L R
Sampling rate : 48.0 kHz
Frame rate : 46.875 FPS (1024 SPF)
Compression mode : Lossy
Stream size : 9.35 MiB (2%)
Title : DUB 2ch | ПлюсПлюс
Language : Ukrainian
Default : No
Forced : No
Скріншоти:


Запис/зведення: sergiyko


Бронзовий реліз (на рейтинг впливає 75% завантаженого)
 Трекер:    Зареєстрований   

Завантажити / скачати мультфільм українською



відео для новачків



 Зареєстрований:   2020-10-26 18:26
 Розмір:   12.16 GB 
 Оцінка мультсеріалу:   8.2/10 (Голосів: 10)
   
sergiyko.5 
Забанено
Забанено


З нами з: 25.02.16
Востаннє: 29.10.20
Повідомлень: 3648

2020-10-17 15:39  
Додав 3-10 серії. Оновіть торент.
uasoft 
Новенький


З нами з: 03.12.16
Востаннє: 10.04.21
Повідомлень: 19

2020-10-17 19:22  
Немає роздачі Sad (1)
sergiyko.5 
Забанено
Забанено


З нами з: 25.02.16
Востаннє: 29.10.20
Повідомлень: 3648

2020-10-22 19:17  
Додав 11-22 серії.
sergiyko.5 
Забанено
Забанено


З нами з: 25.02.16
Востаннє: 29.10.20
Повідомлень: 3648

2020-10-26 18:28  
Додав 23-26 серії. Сезон повний. Після появи відео кращої якості, торент буде оновлено.
Приємного перегляду!

Ваш часовий пояс: GMT + 2 Години

Нова тема   Відповісти