Формула 1. Сезон 2020. Етап 11. Гран-Прі Айфеля. Кваліфікація (10.10.2020) 1080p Ukr/Eng/Int

Нові коментарі

Нова тема   Відповісти
Автор Повідомлення
sergiyko.5 
Забанено
Забанено


З нами з: 25.02.16
Востаннє: 29.10.20
Повідомлень: 3651

2020-10-10 19:53  
Формула 1. Сезон 2020. Етап 11. Гран-Прі Айфеля. Кваліфікація (10.10.2020) 1080p Ukr/Eng/Int


Формула 1. Сезон 2020. Етап 11. Гран-Прі Айфеля. Кваліфікація (10.10.2020) 1080p Ukr/Eng/Int

Жанр: Перегони Формули 1
Країна: Німеччина
Телеканал: F1TV
Коментар: Максим Подзігун, англійською

Опис:
Кваліфікація одинадцятого етапу Гран-Прі Айфеля 2020 року.


Якість:

Відео: кодек: розмір кадру: 1920 х 1080 бітрейт: 5500 кб/с 25 кад/с
Аудіо 1: мова: українська кодек: 2.0 бітрейт: 192 кб/с
Аудіо 2: мова: англійська кодек: 2.0 бітрейт: 192 кб/с
Аудіо 3: мова: - кодек: 2.0 бітрейт: 192 кб/с
Тривалість:
01:19:09
Про файл:
General
Unique ID : 48993456553585634103726372750275859568 (0x24DBCBE7C9CD1CEBDE65831EBD335470)
Complete name : C:\Users\Sergij\Pictures\F1.2020.11.Germany.Qualifying.1080p..Ukr.Eng.Int.
Format :
Format version : Version 4
File size : 3.36 GiB
Duration : 1 h 19 min
Overall bit rate mode : Constant
Overall bit rate : 6 076 kb/s
Movie name : by sergiyko
Encoded date : UTC 2020-10-10 17:49:29
Writing application : v49.0.0 ('Sick Of Losing Soulmates') 64-bit
Writing library : libebml v1.4.0 + v1.6.1

Video
ID : 1
Format : AVC
Format/Info : Advanced Video Codec
Format profile : [email protected]
Format settings : CABAC / 4 Ref Frames
Format settings, CABAC : Yes
Format settings, Reference : 4 frames
Format settings, GOP : M=4, N=50
Codec ID : V_MPEG4/ISO/AVC
Duration : 1 h 19 min
Bit rate mode : Constant
Bit rate : 5 500 kb/s
Width : 1 920 pixels
Height : 1 080 pixels
Display aspect ratio : 16:9
Frame rate mode : Constant
Frame rate : 25.000 FPS
Color space : YUV
Chroma subsampling : 4:2:0
Bit depth : 8 bits
Scan type : Progressive
Bits/(Pixel*Frame) : 0.106
Stream size : 3.04 GiB (90%)
Language : English
Default : Yes
Forced : No

Audio #1
ID : 2
Format : AC-3
Format/Info : Audio Coding 3
Commercial name : Dolby Digital
Codec ID : A_AC3
Duration : 1 h 19 min
Bit rate mode : Constant
Bit rate : 192 kb/s
Channel(s) : 2 channels
Channel layout : L R
Sampling rate : 48.0 kHz
Frame rate : 31.250 FPS (1536 SPF)
Compression mode : Lossy
Delay relative to video : 24 ms
Stream size : 109 MiB (3%)
Title : Максим Подзігун
Language : Ukrainian
Service kind : Complete Main
Default : Yes
Forced : Yes

Audio #2
ID : 3
Format : AC-3
Format/Info : Audio Coding 3
Commercial name : Dolby Digital
Codec ID : A_AC3
Duration : 1 h 19 min
Bit rate mode : Constant
Bit rate : 192 kb/s
Channel(s) : 2 channels
Channel layout : L R
Sampling rate : 48.0 kHz
Frame rate : 31.250 FPS (1536 SPF)
Compression mode : Lossy
Delay relative to video : 24 ms
Stream size : 109 MiB (3%)
Title : Sky Sports F1
Language : English
Service kind : Complete Main
Default : No
Forced : No

Audio #3
ID : 4
Format : AC-3
Format/Info : Audio Coding 3
Commercial name : Dolby Digital
Codec ID : A_AC3
Duration : 1 h 19 min
Bit rate mode : Constant
Bit rate : 192 kb/s
Channel(s) : 2 channels
Channel layout : L R
Sampling rate : 48.0 kHz
Frame rate : 31.250 FPS (1536 SPF)
Compression mode : Lossy
Delay relative to video : 24 ms
Stream size : 109 MiB (3%)
Title : Int
Service kind : Complete Main
Default : No
Forced : No
Скріншоти:


Запис/зведення: sergiyko


 Трекер:    Зареєстрований   

Завантажити / скачати торрент



відео для новачків



 Зареєстрований:   2020-10-10 19:53
 Розмір:   3.36 GB 
 Оцінка:   10/10 (Голосів: 27)
   
Sadandr 
Новенький


З нами з: 02.12.16
Востаннє: 25.10.20
Повідомлень: 5

2020-10-11 04:04  
До 8 хв немає озвучки від \\
sergiyko.5 
Забанено
Забанено


З нами з: 25.02.16
Востаннє: 29.10.20
Повідомлень: 3651

2020-10-11 09:42  
Тому що відео з одного джерела, аудіо з іншого.

Додано через 1 хвилину 4 секунди:

Там де відсутній коментар, вставлено інтершум.

Dron1994 
Частий відвідувач


З нами з: 07.07.14
Востаннє: 27.10.20
Повідомлень: 34

2020-10-27 11:23  
sergiyko.5
А хіба звук береться не з петріону Подзігуна?

sergiyko.5 
Забанено
Забанено


З нами з: 25.02.16
Востаннє: 29.10.20
Повідомлень: 3651

2020-10-27 14:17  
Dron1994
Зазвичай з петріону, але в той саме раз джерело було інше.

Ваш часовий пояс: GMT + 2 Години

Нова тема   Відповісти