Поліна і таємниця кіностудії / Polina and the mystery of a film studio (2019) 1080p

Нові коментарі

Нова тема   Відповісти
Автор Повідомлення
sergiyko.5 
Забанено
Забанено


З нами з: 25.02.16
Востаннє: 29.10.20
Повідомлень: 3648

2020-10-07 00:19  
Поліна і таємниця кіностудії / Polina and the mystery of a film studio (2019) 1080p


Поліна і таємниця кіностудії / Polina and the mystery of a film studio (2019) 1080p

Жанр: фентезі, пригодницький, дитячий
Країна: Україна, Бельгія, Франція
Кінокомпанія: Kinorob, Wild Tribe Films, Black Boat Pictures, Державне агентство України з питань кіно, Film.ua
Режисер: Оліас Барко
Актори: Поліна Печененко, Віржині Ледуайен / Virginie Ledoyen, Сол Рубінек / Saul Rubinek, Едуард Баер / Edouard Baer, Одрі Марней / Audrey Marnay, Вірджил Бремлі / Virgile Bramly, Вім Вілларт / Wim Willaert, Даніель Коен / Daniel Cohen, Жан Рено / Jean Reno, Василь Вірастюк, Джамала / Сусана Джамаладінова, Яна Новікова

Сюжет:
Поліна нічого не знає про своє минуле і долю батьків. Вона живе в будинку зі злою тіткою і двоюрідним братом. Ті таємно планують позбутися дівчинки в день її народження, щоб отримати таємничу спадщину — кіностудію. Поліні вдається втекти, і вона вирушає в чарівну подорож на пошуки правди про свою сім'ю.




Тривалість: 01:32:18
Якість:

Відео: кодек: розмір кадру: 1920 х 1080 бітрейт: 4400 кб/с
Аудіо: мова: українська озвучення: професійне дубльоване кодек: 2.0 бітрейт: 256 кб/с | студія Postmodern
Про файл:
General
Unique ID : 245754243919448088423664688228442704609 (0xB8E28BB51F8B3F2076193EE783F20AE1)
Complete name : C:\Users\Sergij\Pictures\Поліна і таємниця кіностудії.2019.1080p..
Format :
Format version : Version 4
File size : 2.98 GiB
Duration : 1 h 32 min
Overall bit rate mode : Variable
Overall bit rate : 4 623 kb/s
Movie name : Поліна і таємниця кіностудії 2019 by sergiyko
Encoded date : UTC 2020-10-06 22:07:14
Writing application : v49.0.0 ('Sick Of Losing Soulmates') 64-bit
Writing library : libebml v1.4.0 + v1.6.1
Cover : Yes
Attachments : cover.jpeg

Video
ID : 1
Format : AVC
Format/Info : Advanced Video Codec
Format profile : [email protected]
Format settings : CABAC / 1 Ref Frames
Format settings, CABAC : Yes
Format settings, Reference : 1 frame
Codec ID : V_MPEG4/ISO/AVC
Duration : 1 h 32 min
Bit rate mode : Variable
Bit rate : 4 364 kb/s
Maximum bit rate : 13.5 Mb/s
Width : 1 920 pixels
Height : 1 080 pixels
Display aspect ratio : 16:9
Frame rate mode : Constant
Frame rate : 24.000 FPS
Color space : YUV
Chroma subsampling : 4:2:0
Bit depth : 8 bits
Scan type : Progressive
Bits/(Pixel*Frame) : 0.088
Stream size : 2.81 GiB (94%)
Language : Ukrainian
Default : Yes
Forced : No

Audio
ID : 2
Format : LC
Format/Info : Advanced Audio Codec Low Complexity
Codec ID : A_AAC-2
Duration : 1 h 32 min
Bit rate : 256 kb/s
Channel(s) : 2 channels
Channel layout : L R
Sampling rate : 44.1 kHz
Frame rate : 43.066 FPS (1024 SPF)
Compression mode : Lossy
Stream size : 169 MiB (6%)
Language : Ukrainian
Default : Yes
Forced : No
Скріншоти:


Запис: sergiyko


Золотий реліз (завантажене не впливає на рейтинг)
 Трекер:    Зареєстрований   

Завантажити / скачати український фільм



відео для новачків



 Зареєстрований:   2020-10-07 00:19
 Розмір:   2.98 GB 
 Оцінка фільму:   9.7/10 (Голосів: 23)
   
bot 
робот


З нами з: 30.09.07
Востаннє: 26.05.05
Повідомлень: 27309

2020-10-07 00:19  
Тему перенесено з Фільми до форуму Художні фільми


sergiyko.5

roxj 
Свій


З нами з: 31.10.17
Востаннє: 03.03.21
Повідомлень: 71

2020-10-07 20:45  
Переглянула, загалом, фільм нормальний, динамічний, насичений різноманітними сюжетами. Можна дивитися з дитиною. А головне дубльований українською.
Пару нестиковок з часом є, але так буває. Я рада, що у нас почали знімати кіно для сімейного перегляду.

Bohonek 
Свій


З нами з: 21.12.12
Востаннє: 04.03.21
Повідомлень: 144

2020-10-08 13:53  
Дивні якісь акценти в цьому дитячому фільмі. Чи воно так критично сприймається, бо мені 25, а не 15...
А Варвара напрочуд влучно сказала: "Міняючи кіносвіти, ми можемо впливати на глядачів по всьому світу. Це така могутність!" - звучить як кредо останніх тенденцій в сучасному кіно- та серіаловиробництві.

Ваш часовий пояс: GMT + 2 Години

Нова тема   Відповісти