Мерія / City Hall (1996) 1080p H.265 Ukr/Eng | Sub Eng

Нові коментарі

Нова тема   Відповісти
Автор Повідомлення
Цікава ідея 
VIP


З нами з: 25.12.11
Востаннє: 06.03.21
Повідомлень: 823

2020-10-06 21:22  


Мерія / City Hall (1996) 1080p H.265 Ukr/Eng | Sub Eng




Жанр: драма, трилер
Країна: США



Кінокомпанія / телеканал: Castle Rock Entertainment
Режисери: Гарольд Беккер
Актори: Аль Пачіно, Джон Кьюсак, Бріджит Фонду, Денні Айелло, Мартін Ландау, Девід Пеймер, Ентоні Франчоза, Річард Шифф, Ліндсі Дункан, Нестор Серрано

Сюжет:
У вуличній перестрілці в Нью-Йорку поліцейський убиває племінника боса мафії. До цього моменту мер міста Джон Паппас хоробро обмінював хмарочоси на політичну підтримку, націлюючись на президентське крісло. Тепер мафія завдає удар за ударом, залишаючи скрізь свій кривавий слід.


Перекладено та озвучено ТО "Цікава Ідея" на замовлення NemoInFire


Тривалість: 01:51:14

Якість: 1080p H.265
Відео:
кодек: H.265 (HEVC)
розмір кадру: 1906 x 1080
бітрейт: 2000 кб/с
бітова глибина: 10 біт

Увага! Перед завантаженням переконайтесь, що ваш пристрій відтворення (та/або ПЗ) підтримує H.265 (HEVC)


Аудіо # 1:
мова: українська | "Цікава Ідея"
переклад: професійний багатоголосий закадровий
кодек: 2.0
бітрейт: 256 кб/с

Аудіо # 2:
мова: англійська
переклад: оригінал
кодек: 2.0
бітрейт: 224 кб/с

Субтитри:
мова: англійська
тип: програмні (м'які)
формат: *.srt
Info
Код:
Format                                   :
Format version                           : Version 4
File size                                : 1.93 GiB
Duration                                 : 1 h 51 min
Overall bit rate                         : 2 483 kb/s
Movie name                               : Мерія / City Hall (1996) 1080p [Ukr.Eng sub.Eng] [Цікава Ідея]
Encoded date                             : UTC 2020-10-06 18:42:28
Writing application                      : v50.0.0 ('Awakenings') 64-bit
Writing library                          : libebml v1.4.0 + v1.6.2
Cover                                    : Yes
Attachments                              : cover.jpg

Video
ID                                       : 1
Format                                   : HEVC
Format/Info                              : High Efficiency Video Coding
Format profile                           : Main [email protected]@Main
Codec ID                                 : V_MPEGH/ISO/HEVC
Duration                                 : 1 h 51 min
Bit rate                                 : 2 000 kb/s
Width                                    : 1 906 pixels
Height                                   : 1 080 pixels
Display aspect ratio                     : 16:9
Frame rate mode                          : Constant
Frame rate                               : 23.976 (24000/1001) FPS
Color space                              : YUV
Chroma subsampling                       : 4:2:0
Bit depth                                : 10 bits
Bits/(Pixel*Frame)                       : 0.041
Stream size                              : 1.55 GiB (81%)
Writing library                          : x265 3.3+4-rarbg-30eb4de83092:[Linux][GCC 8.3.1][64 bit] 10bit
Encoding settings                        : cpuid=1111039 / frame-threads=4 / wpp / no-pmode / no-pme / no-psnr / no-ssim / log-level=2 / input-csp=1 / input-res=1906x1080 / interlace=0 / total-frames=0 / level-idc=0 / high-tier=1 / uhd-bd=0 / ref=4 / no-allow-non-conformance / no-repeat-headers / annexb / no-aud / no-hrd / info / hash=0 / no-temporal-layers / open-gop / min-keyint=23 / keyint=250 / gop-lookahead=0 / bframes=4 / b-adapt=2 / b-pyramid / bframe-bias=0 / rc-lookahead=25 / lookahead-slices=4 / scenecut=40 / hist-scenecut=0 / radl=0 / no-splice / no-intra-refresh / ctu=64 / min-cu-size=8 / rect / no-amp / max-tu-size=32 / tu-inter-depth=1 / tu-intra-depth=1 / limit-tu=0 / rdoq-level=2 / dynamic-rd=0.00 / no-ssim-rd / signhide / no-tskip / nr-intra=0 / nr-inter=0 / no-constrained-intra / strong-intra-smoothing / max-merge=3 / limit-refs=3 / limit-modes / me=3 / subme=3 / merange=57 / temporal-mvp / no-frame-dup / no-hme / weightp / no-weightb / no-analyze-src-pics / deblock=0:0 / no-sao / no-sao-non-deblock / rd=4 / selective-sao=0 / no-early-skip / rskip / no-fast-intra / no-tskip-fast / no-cu-lossless / no-b-intra / no-splitrd-skip / rdpenalty=0 / psy-rd=2.00 / psy-rdoq=1.00 / no-rd-refine / no-lossless / cbqpoffs=0 / crqpoffs=0 / rc=abr / bitrate=2000 / qcomp=0.60 / qpstep=4 / stats-write=0 / stats-read=2 / cplxblur=20.0 / qblur=0.5 / ipratio=1.40 / pbratio=1.30 / aq-mode=3 / aq-strength=1.00 / cutree / zone-count=0 / no-strict-cbr / qg-size=32 / no-rc-grain / qpmax=69 / qpmin=0 / no-const-vbv / sar=1 / overscan=0 / videoformat=5 / range=0 / colorprim=2 / transfer=2 / colormatrix=2 / chromaloc=0 / display-window=0 / cll=0,0 / min-luma=0 / max-luma=1023 / log2-max-poc-lsb=8 / vui-timing-info / vui-hrd-info / slices=1 / no-opt-qp-pps / no-opt-ref-list-length-pps / no-multi-pass-opt-rps / scenecut-bias=0.05 / hist-threshold=0.01 / no-opt-cu-delta-qp / no-aq-motion / no-hdr10 / no-hdr10-opt / no-dhdr10-opt / no-idr-recovery-sei / analysis-reuse-level=0 / analysis-save-reuse-level=0 / analysis-load-reuse-level=0 / scale-factor=0 / refine-intra=0 / refine-inter=0 / refine-mv=1 / refine-ctu-distortion=0 / no-limit-sao / ctu-info=0 / no-lowpass-dct / refine-analysis-type=0 / copy-pic=1 / max-ausize-factor=1.0 / no-dynamic-refine / no-single-sei / no-hevc-aq / no-svt / no-field / qp-adaptation-range=1.00 / no-scenecut-aware-qpconformance-window-offsets / right=0 / bottom=0
Default                                  : Yes
Forced                                   : No

Audio #1
ID                                       : 2
Format                                   : AC-3
Format/Info                              : Audio Coding 3
Commercial name                          : Dolby Digital
Codec ID                                 : A_AC3
Duration                                 : 1 h 51 min
Bit rate mode                            : Constant
Bit rate                                 : 256 kb/s
Channel(s)                               : 2 channels
Channel layout                           : L R
Sampling rate                            : 44.1 kHz
Frame rate                               : 28.711 FPS (1536 SPF)
Compression mode                         : Lossy
Delay relative to video                  : -43 ms
Stream size                              : 204 MiB (10%)
Title                                    : Цікава Ідея
Language                                 : Ukrainian
Service kind                             : Complete Main
Default                                  : Yes
Forced                                   : No

Audio #2
ID                                       : 3
Format                                   : LC
Format/Info                              : Advanced Audio Codec Low Complexity
Codec ID                                 : A_AAC-2
Duration                                 : 1 h 51 min
Bit rate                                 : 224 kb/s
Channel(s)                               : 2 channels
Channel layout                           : L R
Sampling rate                            : 48.0 kHz
Frame rate                               : 46.875 FPS (1024 SPF)
Compression mode                         : Lossy
Delay relative to video                  : -43 ms
Stream size                              : 178 MiB (9%)
Title                                    : Original
Language                                 : English
Default                                  : No
Forced                                   : No

Text
ID                                       : 4
Format                                   : UTF-8
Codec ID                                 : S_TEXT/UTF8
Codec ID/Info                            : UTF-8 Plain Text
Duration                                 : 1 h 44 min
Bit rate                                 : 86 b/s
Count of elements                        : 2363
Stream size                              : 66.7 KiB (0%)
Language                                 : English
Default                                  : No
Forced                                   : No
Скріншоти



Перекладено та озвучено творчим об'єднанням:


Авторський реліз (завантажувати можна без реєстрації)
 Трекер:    Зареєстрований   

Завантажити / скачати фільм українською



відео для новачків



 Зареєстрований:   2020-10-06 21:22
 Розмір:   1.93 GB 
 Оцінка фільму:   8.4/10 (Голосів: 7)
   
Інші релізи
   Мерія / City Hall (1996) 1080p Ukr/Eng | Sub Eng Цікава ідея  1 / 0   10.15 GB   2020-10-11 13:33 
   Мерія / City Hall (1996) AVC Ukr/Eng | Sub Eng Цікава ідея  6 / 0   1.23 GB   2020-10-06 21:28 
igor911 
Модератор відео


З нами з: 18.01.08
Востаннє: 06.03.21
Повідомлень: 15623

2020-10-07 09:29  
Цікава ідея написано:
1080p H.265
бітрейт: 2000 кб/с

буде реліз першоджерела ( 1080p Amazon 12,6 Мб/с) ?

Цікава ідея 
VIP


З нами з: 25.12.11
Востаннє: 06.03.21
Повідомлень: 823

2020-10-07 10:56  
igor911 написано:
буде реліз першоджерела ( 1080p Amazon 12,6 Мб/с) ?

Так, зробимо!

21jumpstreet 
VIP


З нами з: 03.07.12
Востаннє: 06.03.21
Повідомлень: 1715

2020-10-07 11:04  
Я вгадав акторський склад українського озвучення. Принаймні тих, хто озвучив головних героїв стрічки. Щира дяка за реліз та озвучення. Переклад ще не оцінив, але гадаю він якісний.
y85m05d06 
Свій


З нами з: 21.08.14
Востаннє: 15.02.21
Повідомлень: 99

2020-10-23 21:32  
у мене не відображається відеоряд, тільки аудіо відтворюється , це у всіх така проблема з даним фільмом ?
igor911 
Модератор відео


З нами з: 18.01.08
Востаннє: 06.03.21
Повідомлень: 15623

2020-10-23 21:37  
y85m05d06 написано:
у мене не відображається відеоряд, тільки аудіо відтворюється , це у всіх така проблема з даним фільмом ?

ні, це лише в тих, в кого залізо/софт не підтримує кодек H.265 (HEVC)

-Star-Lord- 
VIP


З нами з: 09.08.18
Востаннє: 06.03.21
Повідомлень: 2433

2020-10-23 21:41  
y85m05d06
Щоб було і відео качайте цей реліз - https://toloka.to/t115134

Ваш часовий пояс: GMT + 2 Години

Нова тема   Відповісти