Вампіри проти Бронкса / Vampires vs. the Bronx (2020) 1080p Eng | sub Ukr/Eng

Нові коментарі

Нова тема   Відповісти
Автор Повідомлення
Neo_Men 
Свій


З нами з: 21.11.15
Востаннє: 26.11.20
Повідомлень: 145

2020-10-06 15:21  
Вампіри проти Бронкса / Vampires vs. the Bronx (2020) 1080p Eng | sub Ukr/Eng

Вампіри проти Бронкса / Vampires vs. the Bronx (2020) 1080p Eng | sub Ukr/Eng


Жанр: комедія, жахи
Країна: США



Кінокомпанія: Broadway Video, Caviar
Режисер: Османі Родріґез
Актори: Джейден Майкл, Сара Ґадон, Ші Віґгем, Адам Девід Томпсон, Кріс Редд

Сюжет:
Група молодих друзів з Бронкса бореться за порятунок свого кварталу від джентрифікації... і вампірів.


Тривалість: 01:26:15
Якість: 1080p
Відео:
кодек:
розмір кадру: 1920 x 1080
бітрейт: 4965 кб/с

Аудіо:
мова: англійська
переклад: оригінал
кодек: E- 5.1
бітрейт: 640 кб/с

Субтитри:
мова: українська
тип: програмні (м'які)
формат: *.srt

Субтитри:
мова: англійська
тип: програмні (м'які)
формат: *.srt
Info
Код:
General
Unique ID                                : 175720775675721586505773791359295959354 (0x84329722A6A88C26BB5C908AF49E313A)
Complete name                            : Vampires vs The Bronx (2020) 1080p [Eng Sub Ukr] [Hurtom].
Format                                   :
Format version                           : Version 4
File size                                : 3.22 GiB
Duration                                 : 1 h 26 min
Overall bit rate mode                    : Variable
Overall bit rate                         : 5 338 kb/s
Movie name                               : Vampires vs The Bronx (2020)
Encoded date                             : UTC 2020-10-06 13:19:30
Writing application                      : v8.3.0 ('Over the Horizon') 64bit
Writing library                          : libebml v1.3.1 + v1.4.2
Cover                                    : Yes
Attachments                              : Cover.jpg

Video
ID                                       : 1
Format                                   : AVC
Format/Info                              : Advanced Video Codec
Format profile                           : [email protected]
Format settings                          : CABAC / 4 Ref Frames
Format settings, CABAC                   : Yes
Format settings, ReFrames                : 4 frames
Codec ID                                 : V_MPEG4/ISO/AVC
Duration                                 : 1 h 26 min
Bit rate mode                            : Variable
Bit rate                                 : 4 695 kb/s
Maximum bit rate                         : 20.0 Mb/s
Width                                    : 1 920 pixels
Height                                   : 1 080 pixels
Display aspect ratio                     : 16:9
Frame rate mode                          : Constant
Frame rate                               : 23.976 (24000/1001) FPS
Color space                              : YUV
Chroma subsampling                       : 4:2:0
Bit depth                                : 8 bits
Scan type                                : Progressive
Bits/(Pixel*Frame)                       : 0.094
Stream size                              : 2.83 GiB (88%)
Writing library                          : core 148 r2722 1b0121b
Encoding settings                        : cabac=1 / ref=4 / deblock=1:0:0 / analyse=0x3:0x111 / me=umh / subme=10 / psy=1 / psy_rd=1.00:0.00 / mixed_ref=1 / me_range=120 / chroma_me=1 / trellis=2 / 8x8dct=1 / cqm=0 / deadzone=21,11 / fast_pskip=1 / chroma_qp_offset=-2 / threads=6 / lookahead_threads=1 / sliced_threads=0 / nr=0 / decimate=1 / interlaced=0 / bluray_compat=0 / stitchable=1 / constrained_intra=0 / bframes=16 / b_pyramid=2 / b_adapt=2 / b_bias=0 / direct=3 / weightb=1 / open_gop=0 / weightp=2 / keyint=240 / keyint_min=121 / scenecut=0 / intra_refresh=0 / rc_lookahead=240 / rc=crf / mbtree=1 / crf=16.0 / qcomp=0.50 / qpmin=6 / qpmax=51 / qpstep=4 / vbv_maxrate=20000 / vbv_bufsize=25000 / crf_max=0.0 / nal_hrd=vbr / filler=0 / ip_ratio=1.40 / aq=1:0.80
Language                                 : English
Default                                  : Yes
Forced                                   : No

Audio
ID                                       : 2
Format                                   : E-AC-3
Format/Info                              : Enhanced AC-3
Commercial name                          : Dolby Digital Plus
Codec ID                                 : A_EAC3
Duration                                 : 1 h 26 min
Bit rate mode                            : Constant
Bit rate                                 : 640 kb/s
Channel(s)                               : 6 channels
Channel layout                           : L R C LFE Ls Rs
Sampling rate                            : 48.0 kHz
Frame rate                               : 31.250 FPS (1536 SPF)
Compression mode                         : Lossy
Stream size                              : 395 MiB (12%)
Language                                 : English
Service kind                             : Complete Main
Default                                  : Yes
Forced                                   : No

Text #1
ID                                       : 3
Format                                   : UTF-8
Codec ID                                 : S_TEXT/UTF8
Codec ID/Info                            : UTF-8 Plain Text
Duration                                 : 1 h 20 min
Bit rate                                 : 88 b/s
Count of elements                        : 1145
Stream size                              : 51.8 KiB (0%)
Title                                    : Full
Language                                 : Ukrainian
Default                                  : Yes
Forced                                   : Yes

Text #2
ID                                       : 4
Format                                   : UTF-8
Codec ID                                 : S_TEXT/UTF8
Codec ID/Info                            : UTF-8 Plain Text
Duration                                 : 1 h 25 min
Bit rate                                 : 68 b/s
Count of elements                        : 1438
Stream size                              : 42.8 KiB (0%)
Title                                    : Full
Language                                 : English
Default                                  : No
Forced                                   : No
Скріншоти





Джерело:
Особиста оцінка: 0 - не дивився


 Трекер:    Зареєстрований   

Завантажити / скачати фільм українською



відео для новачків



 Зареєстрований:   2020-10-06 15:21
 Розмір:   3.22 GB 
 Оцінка фільму:   8.2/10 (Голосів: 5)
   
don pedro 
Попереджень: 1
Попереджень: 1 


З нами з: 29.06.11
Востаннє: 27.11.20
Повідомлень: 18185

2020-10-07 01:49  
Прямо старими-добрими "Кривавим борделем" та "Героїчними винищувачами вампірів" війнуло. Але тільки війнуло - фільм дуже дешевий та й красивих вампірок немає. Рейтинг заслужений (якщо взагалі не завищений).
Ваш часовий пояс: GMT + 2 Години

Нова тема   Відповісти