Порядна львівська пані (2018) 1080p | sub Eng

Нові коментарі

Нова тема   Відповісти
Автор Повідомлення
Anonymous 







2020-10-06 13:42  
Порядна львівська пані (2018) 1080p | sub Eng

Порядна львівська пані (2018) 1080p | sub Eng


Жанр: еротична комедія, короткометражний
Країна: Україна



Кінокомпанія: Kristi Films
Режисер: Наталя Пасеницька
Актори: Анастасія Карпенко, Володимир Губанов, Олена Лаврова, Олег Сікиринський, Олександр Норчук, Антон Пилипийченко, Андрій Сніцарчук

Сюжет:
«Порядна львівська пані» режисера Наталі Пасеницької – це еротична комедія за мотивами однойменної книги відомої української письменниці Люби Клименко. Автором сценарію стрічки є Марина Меднікова, продюсером – Юрій Мінзянов.

Головна героїня картини – сучасна інтелігентна жінка Пенелопа – живе у Львові і працює в архіві. Життя Пенелопи складається за звичною схемою «родина – робота». Все порядно, культурно, чемно і... нестерпно нудно. Втім, одного чудового дня все змінюється. До архіву приїжджає у відрядження молодий доктор наук Дмитро Остромирський. Зустріч героїв призводить до шалених пристрастей і божевільних вчинків.


Тривалість: 00:30:43
Якість:
Відео:
кодек:
розмір кадру: 1920 х 1080
бітрейт: 1160 кб/с

Аудіо:
мова: українська
переклад: оригінал
кодек: 2.0
бітрейт: 128 кб/с

Субтитри:
мова: англійська
тип: вбудовані (жорсткі)
Info
Код:
General
Complete name                            : Порядна львівська пані (2018) 1080p [Ukr] [Hurtom].mp4
Format                                   : MPEG-4
Format profile                           : Base Media
Codec ID                                 : isom (isom/iso2/avc1/mp41)
File size                                : 284 MiB
Duration                                 : 30 min 43 s
Overall bit rate                         : 1 294 kb/s
Movie name                               : Порядна львівська пані
Performer                                : Dergkino Ukraine
Description                              : Дивись українське! /  / «Порядна львівська пані» режисера Наталі Пасеницької – це еротична комедія за мотивами однойменної книги відомої української письменниці Люби Клименко. Автором сценарію стрічки є Марина Меднікова, продюсером – Юрій Мінзянов. /  / Головна героїня картини – сучасна інтелігентна жінка Пенелопа – живе у Львові і працює в архіві. Життя Пенелопи складається за звичною схемою «родина – робота». Все порядно, культурно, чемно і... нестерпно нудно. Втім, одного чудового дня все змінюється. До архіву приїжджає у відрядження молодий доктор наук Дмитро Остромирський. Зустріч героїв призводить до шалених пристрастей і божевільних вчинків. /  / За словами продюсера фільму Юрія Мінзянова, найголовніший меседж фільму – не треба жити не своїм життям, не треба боятися змін, не треба боятися зустріти щире та ніжне кохання, яке змінює все життя, бо люди мають приносити задоволення та щастя одне одному. /  / Кінопроект цієї стрічки став одним із переможців Десятого конкурсного відбору Держкіно і отримав державну фінансову підтримку розміром 995 тис. грн, що і складає загальну вартість виробництва фільму. /  / Сидимо дома та дивимось гарне кіно!
Recorded date                            : 20200409
Writing application                      : Lavf57.83.100
Comment                                  : Дивись українське! /  / «Порядна львівська пані» режисера Наталі Пасеницької – це еротична комедія за мотивами однойменної книги відомої української письменниці Люби Клименко. Автором сценарію стрічки є Марина Меднікова, продюсером – Юрій Мінзянов. /  / Головна героїня картини – сучасна інтелігентна жінка Пенелопа – живе у Львові і працює в архіві. Життя Пенелопи складається за звичною схемою «родина – робота». Все порядно, культурно, чемно і... нестерпно нудно. Втім, одного чудового дня все змінюється. До архіву приїжджає у відрядження молодий доктор наук Дмитро Остромирський. Зустріч героїв призводить до шалених пристрастей і божевільних вчинків. /  / За словами продюсера фільму Юрія Мінзянова, найголовніший меседж фільму – не треба жити не своїм життям, не треба боятися змін, не треба боятися зустріти щире та ніжне кохання, яке змінює все життя, бо люди мають приносити задоволення та щастя одне одному. /  / Кінопроект цієї стрічки став одним із переможців Десятого конкурсного відбору Держкіно і отримав державну фінансову підтримку розміром 995 тис. грн, що і складає загальну вартість виробництва фільму. /  / Сидимо дома та дивимось гарне кіно!

Video
ID                                       : 1
Format                                   : AVC
Format/Info                              : Advanced Video Codec
Format profile                           : [email protected]
Format settings                          : CABAC / 3 Ref Frames
Format settings, CABAC                   : Yes
Format settings, Reference frames        : 3 frames
Codec ID                                 : avc1
Codec ID/Info                            : Advanced Video Coding
Duration                                 : 30 min 43 s
Bit rate                                 : 1 160 kb/s
Width                                    : 1 920 pixels
Height                                   : 1 080 pixels
Display aspect ratio                     : 16:9
Frame rate mode                          : Constant
Frame rate                               : 24.000 FPS
Color space                              : YUV
Chroma subsampling                       : 4:2:0
Bit depth                                : 8 bits
Scan type                                : Progressive
Bits/(Pixel*Frame)                       : 0.023
Stream size                              : 255 MiB (90%)
Writing library                          : core 155 r2901 7d0ff22
Color range                              : Limited
Color primaries                          : BT.709
Transfer characteristics                 : BT.709
Matrix coefficients                      : BT.709
Codec configuration box                  : avcC

Audio
ID                                       : 2
Format                                   : LC
Format/Info                              : Advanced Audio Codec Low Complexity
Codec ID                                 : mp4a-40-2
Duration                                 : 30 min 43 s
Duration_LastFrame                       : 1 ms
Bit rate mode                            : Constant
Bit rate                                 : 128 kb/s
Channel(s)                               : 2 channels
Channel layout                           : L R
Sampling rate                            : 44.1 kHz
Frame rate                               : 43.066 FPS (1024 SPF)
Compression mode                         : Lossy
Stream size                              : 28.1 MiB (10%)
Default                                  : Yes
Alternate group                          : 1

Скріншоти


Джерело:


Золотий реліз (завантажене не впливає на рейтинг)
 Трекер:    Зареєстрований   

Завантажити / скачати український фільм



відео для новачків



 Зареєстрований:   2020-10-06 13:42
 Розмір:   284 MB 
 Оцінка фільму:   9.5/10 (Голосів: 29)
   
Форкуш 
VIP


З нами з: 03.02.10
Востаннє: 27.02.21
Повідомлень: 2940

2020-10-06 23:02  
Додайте в обох назвах sub Eng/
І в описі поправтете - ресисерки Наталії

Leprechaun 
Свій


З нами з: 10.10.09
Востаннє: 25.02.21
Повідомлень: 57

2020-10-07 18:51  
Анастасія Карпенко - найкраща акторка України. Обожнював її в театрі
andriy_nv 
VIP


З нами з: 27.06.08
Востаннє: 26.02.21
Повідомлень: 1129

2020-10-11 17:43  
цікаве кіно Wink (2)
roxj 
Свій


З нами з: 31.10.17
Востаннє: 26.02.21
Повідомлень: 67

2020-10-13 14:51  
Якість самого фільму приємно вразила, крупні плани, витончено, еротично, зі смаком...
RobertMenus 
Відео Гуртом - субтитрування
Відео Гуртом - субтитрування


З нами з: 08.03.11
Востаннє: 26.02.21
Повідомлень: 192

2020-10-17 19:58  
якщо що, фільм дуже-предуже порізаний відносно літературного першоджерела. це приблизно третина, тому історія може здатися дещо обрубаною.
Ваш часовий пояс: GMT + 2 Години

Нова тема   Відповісти