Не менше 50 кг (2013) 1080p

Нові коментарі

Нова тема   Відповісти
Автор Повідомлення
Anonymous 







2020-10-06 12:31  
Не менше 50 кг (2013) 1080p

Не менше 50 кг (2013) 1080p


Жанр: драма, короткометражний
Країна: Україна



Кінокомпанія: ТОВ Директорія кіно
Режисер: Марина Артеменко
Актори: Вікторія Кулик, Валерій Астахов, Ярослав Герус, Ірина Рождєствєнська, Руслан Никоненко, Леся Липчук, Ніна Радкевич, Сергій Бєсєдін

Сюжет:
Короткометражний фільм українського режисера Марини Артеменко «Не менше 50 кг» (Not less than 50 kg) зачіпає серйозну для значної частини жіночої половини людства проблему - зайвої ваги.
Ось тільки в даному випадку продемонстрований дещо інший підхід. Героїня картини «Не менше 50 кг» вирішує повстати проти стереотипів, що склалися в суспільстві. І починає боротися зі своєю вагою зовсім не так, як би ви могли подумати - вона починає посилено набирати кілограми...


Тривалість: 00:12:38
Якість:
Відео:
кодек:
розмір кадру: 1920 х 1080
бітрейт: 1881 кб/с

Аудіо:
мова: відсутня
кодек: 2.0
бітрейт: 128 кб/с
MI
Код:
General
Complete name                            : Не менше 50 кг (2013) 1080p [Hurtom].mp4
Format                                   : MPEG-4
Format profile                           : Base Media
Codec ID                                 : isom (isom/iso2/avc1/mp41)
File size                                : 182 MiB
Duration                                 : 12 min 38 s
Overall bit rate                         : 2 015 kb/s
Movie name                               : Не менше 50 кг. Короткометражний фільм
Performer                                : Dergkino Ukraine
Description                              : Короткометражний ігровий фільм режисерки Марини Артеменко «Не менше 50 кг»(2012) за власним однойменним сценарієм… /  / Героїня картини «Не менше 50 кг» вирішує повстати проти стереотипів, що склалися в суспільстві. І починає боротися зі своєю вагою зовсім не так, як би ви могли подумати - вона починає посилено набирати кілограми.
Recorded date                            : 20200619
Writing application                      : Lavf57.83.100
Comment                                  : Короткометражний ігровий фільм режисерки Марини Артеменко «Не менше 50 кг»(2012) за власним однойменним сценарієм… /  / Героїня картини «Не менше 50 кг» вирішує повстати проти стереотипів, що склалися в суспільстві. І починає боротися зі своєю вагою зовсім не так, як би ви могли подумати - вона починає посилено набирати кілограми.

Video
ID                                       : 1
Format                                   : AVC
Format/Info                              : Advanced Video Codec
Format profile                           : [email protected]
Format settings                          : CABAC / 3 Ref Frames
Format settings, CABAC                   : Yes
Format settings, Reference frames        : 3 frames
Codec ID                                 : avc1
Codec ID/Info                            : Advanced Video Coding
Duration                                 : 12 min 37 s
Bit rate                                 : 1 881 kb/s
Width                                    : 1 920 pixels
Height                                   : 1 080 pixels
Display aspect ratio                     : 16:9
Frame rate mode                          : Constant
Frame rate                               : 24.000 FPS
Color space                              : YUV
Chroma subsampling                       : 4:2:0
Bit depth                                : 8 bits
Scan type                                : Progressive
Bits/(Pixel*Frame)                       : 0.038
Stream size                              : 170 MiB (93%)
Color range                              : Limited
Color primaries                          : BT.709
Transfer characteristics                 : BT.709
Matrix coefficients                      : BT.709
Codec configuration box                  : avcC

Audio
ID                                       : 2
Format                                   : LC
Format/Info                              : Advanced Audio Codec Low Complexity
Codec ID                                 : mp4a-40-2
Duration                                 : 12 min 38 s
Duration_LastFrame                       : 1 ms
Bit rate mode                            : Constant
Bit rate                                 : 128 kb/s
Channel(s)                               : 2 channels
Channel layout                           : L R
Sampling rate                            : 44.1 kHz
Frame rate                               : 43.066 FPS (1024 SPF)
Compression mode                         : Lossy
Stream size                              : 11.6 MiB (6%)
Default                                  : Yes
Alternate group                          : 1
Скріншоти


Джерело:


Золотий реліз (завантажене не впливає на рейтинг)
 Трекер:    Зареєстрований   

Завантажити / скачати український фільм



відео для новачків



 Зареєстрований:   2020-10-06 12:31
 Розмір:   182 MB 
 Оцінка фільму:   9.5/10 (Голосів: 8)
   
Ваш часовий пояс: GMT + 2 Години

Нова тема   Відповісти