П’ять хвилин (2017) 1080p | sub Eng

Нові коментарі

Нова тема   Відповісти
Автор Повідомлення
Anonymous 







2020-10-06 12:14  
П’ять хвилин (2017) 1080p | sub Eng

П’ять хвилин (2017) 1080p | sub Eng


Жанр: комедія, короткометражний
Країна: Україна

Кінокомпанія: Go Ua Production
Режисер: Яна Антонець
Актори: Володимир Джура, Артем Вільбик, Кирило Кашліков, Роман Ясиновський, Олександр Рудинський, Олег Нікітін, Олексій Савін, Вікторія Авдєєнко, Павло Нікандров, Денис Шацький

Сюжет:
Абсурд на тлі пафосного похорону. Члени сім'ї виставляють на показ своє багатство та шану покійному. За всім цим ніхто не помічає, що вони загубили дещо важливе… Ніхто, окрім тракториста, браконьєрів, двох поліцейських та робітників сільської лікарні... Чим закінчиться цей незвичний похорон?


Тривалість: 00:14:16
Якість:
Відео:
кодек:
розмір кадру: 1920 х 1080
бітрейт: 2737 кб/с

Аудіо:
мова: українська
переклад: оригінал
кодек: 2.0
бітрейт: 128 кб/с

Субтитри:
мова: англійська
тип: вбудовані (жорсткі)
MI
Код:
General
Complete name                            : 5 хвилин (2017) 1080p [Ukr] [Hurtom].mp4
Format                                   : MPEG-4
Format profile                           : Base Media
Codec ID                                 : isom (isom/iso2/avc1/mp41)
File size                                : 293 MiB
Duration                                 : 14 min 16 s
Overall bit rate                         : 2 871 kb/s
Movie name                               : 5 хвилин. Комедія
Performer                                : Dergkino Ukraine
Description                              : Короткометражний дебютний фільм Яни Антонець «П’ять хвилин»  /   / Абсурд на тлі пафосного похорону. Члени сім'ї виставляють на показ своє багатство та шану покійному. За всім цим ніхто не помічає, що вони загубили дещо важливе… Ніхто, окрім тракториста, браконьєрів, двох поліцейських та робітників сільської лікарні... Чим закінчиться цей незвичний похорон?  /   / Проект фільму став одним із переможців Дев’ятого конкурсного відбору Держкіно, отримавши 100% державну фінансову підтримку розміром 999 тис. 952 грн.  Виробництво фільма: компанія Go Ua Production  /   / «П’ять хвилин» учасник та лауреат міжнародних та національних фестивалей: International Peace & Film Festival, Орландо, США(кращий комедійний фільм, краща чоловіча роль, Роман Ясіновський, краща екшн-сцена, приз Essence Award  - нагорода короткометражному фільму, який найкраще передає ідею фільму за найменшу кількість часу); Mediawavе, Угорщина; Odessa International Film Festival, Україна; CinemadaMare, Італія; Comedy Cluj International Film Festival, Румунія; Tetova International Film Festival - ODA, Македонія; “Відкрита ніч”, Україна(Приз глядацьких симпатій (за результатами SMSголосуванням) , Диплом фестивалю в номінації ігрове кіно); КиТи, Україна  /   / Ідея: Микита Сітдіков Автори сценарію: Левон Назiнян, Олександр Гелюх, Микита Сітдіков, Яна Антонець,  Оператори-постановники: Олександр Петроченко, Антон Антонець  Художник-постановник: Андрій Барилко  Композитор та звукорежисер: Дмитро Сніжко  Кольорокорекція: Марина Ткаченко  Продюсер: Оксана Косик   /   / Ролі у фільмі виконали: Володимир Джура Артем Вільбик Кирило Кашліков  Роман Ясиновський Олександр Рудинський  Олег Нікітін  Олексій Савін Вікторія Авдєєнко Павло Нікандров Денис Шацький
Recorded date                            : 20200417
Writing application                      : Lavf57.83.100
Comment                                  : Короткометражний дебютний фільм Яни Антонець «П’ять хвилин»  /   / Абсурд на тлі пафосного похорону. Члени сім'ї виставляють на показ своє багатство та шану покійному. За всім цим ніхто не помічає, що вони загубили дещо важливе… Ніхто, окрім тракториста, браконьєрів, двох поліцейських та робітників сільської лікарні... Чим закінчиться цей незвичний похорон?  /   / Проект фільму став одним із переможців Дев’ятого конкурсного відбору Держкіно, отримавши 100% державну фінансову підтримку розміром 999 тис. 952 грн.  Виробництво фільма: компанія Go Ua Production  /   / «П’ять хвилин» учасник та лауреат міжнародних та національних фестивалей: International Peace & Film Festival, Орландо, США(кращий комедійний фільм, краща чоловіча роль, Роман Ясіновський, краща екшн-сцена, приз Essence Award  - нагорода короткометражному фільму, який найкраще передає ідею фільму за найменшу кількість часу); Mediawavе, Угорщина; Odessa International Film Festival, Україна; CinemadaMare, Італія; Comedy Cluj International Film Festival, Румунія; Tetova International Film Festival - ODA, Македонія; “Відкрита ніч”, Україна(Приз глядацьких симпатій (за результатами SMSголосуванням) , Диплом фестивалю в номінації ігрове кіно); КиТи, Україна  /   / Ідея: Микита Сітдіков Автори сценарію: Левон Назiнян, Олександр Гелюх, Микита Сітдіков, Яна Антонець,  Оператори-постановники: Олександр Петроченко, Антон Антонець  Художник-постановник: Андрій Барилко  Композитор та звукорежисер: Дмитро Сніжко  Кольорокорекція: Марина Ткаченко  Продюсер: Оксана Косик   /   / Ролі у фільмі виконали: Володимир Джура Артем Вільбик Кирило Кашліков  Роман Ясиновський Олександр Рудинський  Олег Нікітін  Олексій Савін Вікторія Авдєєнко Павло Нікандров Денис Шацький

Video
ID                                       : 1
Format                                   : AVC
Format/Info                              : Advanced Video Codec
Format profile                           : [email protected]
Format settings                          : CABAC / 3 Ref Frames
Format settings, CABAC                   : Yes
Format settings, Reference frames        : 3 frames
Codec ID                                 : avc1
Codec ID/Info                            : Advanced Video Coding
Duration                                 : 14 min 16 s
Bit rate                                 : 2 737 kb/s
Width                                    : 1 920 pixels
Height                                   : 1 080 pixels
Display aspect ratio                     : 16:9
Frame rate mode                          : Constant
Frame rate                               : 24.000 FPS
Color space                              : YUV
Chroma subsampling                       : 4:2:0
Bit depth                                : 8 bits
Scan type                                : Progressive
Bits/(Pixel*Frame)                       : 0.055
Stream size                              : 280 MiB (95%)
Color range                              : Limited
Color primaries                          : BT.709
Transfer characteristics                 : BT.709
Matrix coefficients                      : BT.709
Codec configuration box                  : avcC

Audio
ID                                       : 2
Format                                   : LC
Format/Info                              : Advanced Audio Codec Low Complexity
Codec ID                                 : mp4a-40-2
Duration                                 : 14 min 16 s
Duration_LastFrame                       : 1 ms
Bit rate mode                            : Constant
Bit rate                                 : 128 kb/s
Channel(s)                               : 2 channels
Channel layout                           : L R
Sampling rate                            : 44.1 kHz
Frame rate                               : 43.066 FPS (1024 SPF)
Compression mode                         : Lossy
Stream size                              : 13.1 MiB (4%)
Language                                 : English
Default                                  : Yes
Alternate group                          : 1

Скріншоти


Джерело:


Золотий реліз (завантажене не впливає на рейтинг)
 Трекер:    Зареєстрований   

Завантажити / скачати український фільм



відео для новачків



 Зареєстрований:   2020-10-06 12:14
 Розмір:   293 MB 
 Оцінка фільму:   9.7/10 (Голосів: 7)
   
Ваш часовий пояс: GMT + 2 Години

Нова тема   Відповісти