Подорож (2017) 1080p

Нові коментарі

Нова тема   Відповісти
Автор Повідомлення
Anonymous 







2020-10-06 11:54  
Подорож (2017) 1080p

Подорож (2017) 1080p


Жанр: анімація, короткометражний
Країна: Україна

Кінокомпанія: Інсайт Медіа
Режисер: Євгенія Кіракосян
Актори: ?

Сюжет:
«Подорож» Євгенії Кіракосян – це 7-хвилинна філософська драма, яка розповідає історію маленької дівчинки.
Героїня починає свою неймовірну подорож світами фантазій художника, потрапляючи в складні ситуації та долаючи різні перешкоди, намагаючись знайти втрачену цінність – частину себе.


Тривалість: 00:07:31
Якість:
Відео:
кодек:
розмір кадру: 1920 х 1080
бітрейт: 2938 кб/с

Аудіо:
мова: відсутня
кодек: 2.0
бітрейт: 128 кб/с
MI
Код:
General
Complete name                            : Подорож (2017) 1080p [Hurtom].mp4
Format                                   : MPEG-4
Format profile                           : Base Media
Codec ID                                 : isom (isom/iso2/avc1/mp41)
File size                                : 165 MiB
Duration                                 : 7 min 31 s
Overall bit rate                         : 3 071 kb/s
Movie name                               : Подорож. Короткометражний анімаційний фільм
Performer                                : Dergkino Ukraine
Description                              : «Подорож» Євгенії Кіракосян – це 7-хвилинна філософська драма, яка розповідає історію маленької дівчинки.  /  / Героїня починає свою неймовірну подорож світами фантазій художника, потрапляючи в складні ситуації та долаючи різні перешкоди, намагаючись знайти втрачену цінність – частину себе.  /  / Проєкт короткометражного анімаційного фільму «Подорож» став одним із переможців Четвертого конкурсного відбору Держкіно. Виробництво здійснила компанія «Інсайт Медіа». Режисером-постановником, автором сценарію та художником-постановником стрічки є Євгенія Кіракосян, оператором-постановником – Андрій Суярко. Продюсери фільму: Алла Овсяннікова, Володимир Філіппов (генеральний продюсер) та Поліна Бушинська – виконавчий продюсер. /  / Стрічка взяла участь у фестивалях: Міжнародний кінофестиваль REX Animation Festival (Стокгольм, Швеція), 2017; Міжнародний кінофестиваль "Відкрита ніч" (Київ, Україна), 2017; ХXIV Міжнародний фестиваль анімаційних фільмів "КРОК–2017: У рідній гавані" (Київ, Україна), 2017 та інших.
Recorded date                            : 20200724
Writing application                      : Lavf57.83.100
Comment                                  : «Подорож» Євгенії Кіракосян – це 7-хвилинна філософська драма, яка розповідає історію маленької дівчинки.  /  / Героїня починає свою неймовірну подорож світами фантазій художника, потрапляючи в складні ситуації та долаючи різні перешкоди, намагаючись знайти втрачену цінність – частину себе.  /  / Проєкт короткометражного анімаційного фільму «Подорож» став одним із переможців Четвертого конкурсного відбору Держкіно. Виробництво здійснила компанія «Інсайт Медіа». Режисером-постановником, автором сценарію та художником-постановником стрічки є Євгенія Кіракосян, оператором-постановником – Андрій Суярко. Продюсери фільму: Алла Овсяннікова, Володимир Філіппов (генеральний продюсер) та Поліна Бушинська – виконавчий продюсер. /  / Стрічка взяла участь у фестивалях: Міжнародний кінофестиваль REX Animation Festival (Стокгольм, Швеція), 2017; Міжнародний кінофестиваль "Відкрита ніч" (Київ, Україна), 2017; ХXIV Міжнародний фестиваль анімаційних фільмів "КРОК–2017: У рідній гавані" (Київ, Україна), 2017 та інших.

Video
ID                                       : 1
Format                                   : AVC
Format/Info                              : Advanced Video Codec
Format profile                           : [email protected]
Format settings                          : CABAC / 3 Ref Frames
Format settings, CABAC                   : Yes
Format settings, Reference frames        : 3 frames
Codec ID                                 : avc1
Codec ID/Info                            : Advanced Video Coding
Duration                                 : 7 min 31 s
Bit rate                                 : 2 938 kb/s
Width                                    : 1 920 pixels
Height                                   : 1 080 pixels
Display aspect ratio                     : 16:9
Frame rate mode                          : Constant
Frame rate                               : 25.000 FPS
Color space                              : YUV
Chroma subsampling                       : 4:2:0
Bit depth                                : 8 bits
Scan type                                : Progressive
Bits/(Pixel*Frame)                       : 0.057
Stream size                              : 158 MiB (96%)
Color range                              : Limited
Color primaries                          : BT.709
Transfer characteristics                 : BT.709
Matrix coefficients                      : BT.709
Codec configuration box                  : avcC

Audio
ID                                       : 2
Format                                   : LC
Format/Info                              : Advanced Audio Codec Low Complexity
Codec ID                                 : mp4a-40-2
Duration                                 : 7 min 31 s
Duration_LastFrame                       : 1 ms
Bit rate mode                            : Constant
Bit rate                                 : 128 kb/s
Channel(s)                               : 2 channels
Channel layout                           : L R
Sampling rate                            : 44.1 kHz
Frame rate                               : 43.066 FPS (1024 SPF)
Compression mode                         : Lossy
Stream size                              : 6.89 MiB (4%)
Language                                 : English
Default                                  : Yes
Alternate group                          : 1

Скріншоти


Джерело:


Золотий реліз (завантажене не впливає на рейтинг)
 Трекер:    Зареєстрований   

Завантажити / скачати український мультфільм



відео для новачків



 Зареєстрований:   2020-10-06 11:54
 Розмір:   165 MB 
 Оцінка мультфільму:   10/10 (Голосів: 4)
   
Ваш часовий пояс: GMT + 2 Години

Нова тема   Відповісти