Ваня (2012) 1080p | sub Eng

Нові коментарі

Нова тема   Відповісти
Автор Повідомлення
Anonymous 







2020-10-06 11:53  
Ваня (2012) 1080p | sub Eng

Ваня (2012) 1080p | sub Eng


Жанр: соціальна драма, короткометражний
Країна: Україна



Кінокомпанія: ФОП Журженко
Режисер: Оксана Артеменко
Актори: Микита Івченко, Анна Александрова, Тимофій Антропов, Крістіна Марченко, Наталя Степанова та ін.

Сюжет:
Короткометражна драма «Ваня» – історія про жорсткі і часом жорстокі правилах життя в суспільстві на прикладі вихованців дитячого будинку.
У фільмі “Ваня” дитячий будинок зображений як модель суспільства, де є свої плюси і мінуси. Є свої закони. Той, хто сильніший завжди тримає верх над тим, хто слабший. Але є одне найголовніше – не втратити віру, незважаючи ні на що.
Ваня – сирота. У нього є будильник. Він вважає, що коли прийде його мати, вона впізнає його по цьому предмету. Але хлопчики з дитячого будинку вирішили зіграти з Ванею жорстокий жарт…


Тривалість: 00:10:07
Якість:
Відео:
кодек:
розмір кадру: 1920 х 1080
бітрейт: 3506 кб/с

Аудіо:
мова: українська, частково кацапська
переклад: оригінал
кодек: 2.0
бітрейт: 128 кб/с

Субтитри:
мова: англійська
тип: вбудовані (жорсткі)
MI
Код:
General
Complete name                            : Ваня (2012) 1080p [Ukr] [Hurtom].mp4
Format                                   : MPEG-4
Format profile                           : Base Media
Codec ID                                 : isom (isom/iso2/avc1/mp41)
File size                                : 263 MiB
Duration                                 : 10 min 7 s
Overall bit rate                         : 3 640 kb/s
Movie name                               : Ваня. Короткометражний фільм
Performer                                : Dergkino Ukraine
Description                              : Дебютний короткометражний фільм «Ваня» режисерки Оксани Артеменко створений за результатами Першого відкритого конкурсу кінопроєктів Державного агентства України з питань кіно. /  / Соціальна драма «Ваня» – історія про жорсткі і часом жорстокі правила життя в суспільстві, моделлю якого у стрічці є дитячий будинок та його вихованці. /  / Ваня – сирота. У нього є будильник. Він вірить, що коли прийде мама, вона впізнає його за ним. Але хлопці з дитбудинку вирішують зле пожартувати над Ванею. /  / Режисером та співавтором сценарію стрічки є Оксана Артеменко, над сценарієм працював також Іван Тимченко, який є оператором стрічки, продюсер картини – Ольга Журженко. У ролях: Микита Івченко, Анна Александрова, Тімоті Антропов.   /     / Робота над фільмом була завершена у 2012 році, після чого картина об’їхала безліч фестивалів та отримала півтора десятки нагород.
Recorded date                            : 20200731
Writing application                      : Lavf57.83.100
Comment                                  : Дебютний короткометражний фільм «Ваня» режисерки Оксани Артеменко створений за результатами Першого відкритого конкурсу кінопроєктів Державного агентства України з питань кіно. /  / Соціальна драма «Ваня» – історія про жорсткі і часом жорстокі правила життя в суспільстві, моделлю якого у стрічці є дитячий будинок та його вихованці. /  / Ваня – сирота. У нього є будильник. Він вірить, що коли прийде мама, вона впізнає його за ним. Але хлопці з дитбудинку вирішують зле пожартувати над Ванею. /  / Режисером та співавтором сценарію стрічки є Оксана Артеменко, над сценарієм працював також Іван Тимченко, який є оператором стрічки, продюсер картини – Ольга Журженко. У ролях: Микита Івченко, Анна Александрова, Тімоті Антропов.   /     / Робота над фільмом була завершена у 2012 році, після чого картина об’їхала безліч фестивалів та отримала півтора десятки нагород.

Video
ID                                       : 1
Format                                   : AVC
Format/Info                              : Advanced Video Codec
Format profile                           : [email protected]
Format settings                          : CABAC / 3 Ref Frames
Format settings, CABAC                   : Yes
Format settings, Reference frames        : 3 frames
Codec ID                                 : avc1
Codec ID/Info                            : Advanced Video Coding
Duration                                 : 10 min 7 s
Bit rate                                 : 3 506 kb/s
Width                                    : 1 920 pixels
Height                                   : 1 080 pixels
Display aspect ratio                     : 16:9
Frame rate mode                          : Constant
Frame rate                               : 25.000 FPS
Color space                              : YUV
Chroma subsampling                       : 4:2:0
Bit depth                                : 8 bits
Scan type                                : Progressive
Bits/(Pixel*Frame)                       : 0.068
Stream size                              : 254 MiB (96%)
Color range                              : Limited
Color primaries                          : BT.709
Transfer characteristics                 : BT.709
Matrix coefficients                      : BT.709
Codec configuration box                  : avcC

Audio
ID                                       : 2
Format                                   : LC
Format/Info                              : Advanced Audio Codec Low Complexity
Codec ID                                 : mp4a-40-2
Duration                                 : 10 min 7 s
Bit rate mode                            : Constant
Bit rate                                 : 128 kb/s
Channel(s)                               : 2 channels
Channel layout                           : L R
Sampling rate                            : 44.1 kHz
Frame rate                               : 43.066 FPS (1024 SPF)
Compression mode                         : Lossy
Stream size                              : 9.26 MiB (4%)
Language                                 : English
Default                                  : Yes
Alternate group                          : 1
Скріншоти


Джерело:


Золотий реліз (завантажене не впливає на рейтинг)
 Трекер:    Зареєстрований   

Завантажити / скачати український фільм



відео для новачків



 Зареєстрований:   2020-10-06 11:53
 Розмір:   263 MB 
 Оцінка фільму:   9.2/10 (Голосів: 5)
   
roxj 
Свій


З нами з: 31.10.17
Востаннє: 28.02.21
Повідомлень: 67

2020-10-13 17:29  
Реальність за 10 хв. не висвітлиш, але спроба вдала.
Ваш часовий пояс: GMT + 2 Години

Нова тема   Відповісти