Сага (Сезон 1) (2020) 1080p

Нові коментарі

Нова тема   Відповісти
Автор Повідомлення
sergiyko.5 
VIP


З нами з: 25.02.16
Востаннє: 27.10.20
Повідомлень: 3626

2020-10-05 21:32  
Сага (Сезон 1) (2020) 1080p


Сага (Сезон 1) (2020) 1080p

Жанр: історія, драма
Країна: Україна
Кінокомпанія: Три-Я-Да Продакшн
Режисер: Дмитро Лактіонов
Актори: Ада Роговцева, Наталка Денисенко, Дар’я Плахтій, Олександра Люта, Лілія Цвелікова, Ігор Пазич, Григорій Бакланов, Яков Кучеревський, Микола Боклан, Аліна Коваленко, Юрій Дяк.

Сюжет:
У серіалі глядач стане свідком найвизначніших подій української історії крізь призму життя звичайної родини Козак. Сто років історії звичайної української сім'ї – сто років поневірянь, переслідувань, бід і боротьби за свободу. Шість поколінь родини Козак стануть свідками страшних подій, через які пройде країна: від світових воєн і радянських репресій до Чорнобиля і революцій. Але через всі роки, переживаючи зради, образи і біль – Козаки пронесуть любов до своєї сім'ї, дітей і рідної України.


Тривалість: 1 серія 00:47:37 (цілком серій: 12 з 12)
Якість:

Відео: кодек: розмір кадру: 1920 х 1080 бітрейт: 6000 кб/с
Аудіо: мова: українська озвучення: оригінал кодек: 2.0 бітрейт: 192 кб/с
Перелік серій
01-12
Про файл:
General
Unique ID : 47974868249024940890791717078406425726 (0x24179F9FEAA33FB496F331601A2E6C7E)
Complete name : D:\Documents\Torrents\FILMS\Сага S01 1080p \Сага.S01E01.1080p..
Format :
Format version : Version 4
File size : 2.03 GiB
Duration : 47 min 20 s
Overall bit rate : 6 143 kb/s
Movie name : Сага S01 by sergiyko
Encoded date : UTC 2020-10-05 20:22:12
Writing application : v49.0.0 ('Sick Of Losing Soulmates') 64-bit
Writing library : libebml v1.4.0 + v1.6.1

Video
ID : 1
Format : AVC
Format/Info : Advanced Video Codec
Format profile : [email protected]
Format settings : CABAC / 4 Ref Frames
Format settings, CABAC : Yes
Format settings, Reference : 4 frames
Codec ID : V_MPEG4/ISO/AVC
Duration : 47 min 20 s
Bit rate : 6 000 kb/s
Width : 1 920 pixels
Height : 1 080 pixels
Display aspect ratio : 16:9
Frame rate mode : Constant
Frame rate : 25.000 FPS
Color space : YUV
Chroma subsampling : 4:2:0
Bit depth : 8 bits
Scan type : Progressive
Bits/(Pixel*Frame) : 0.116
Stream size : 1.97 GiB (97%)
Writing library : core 158 r2984 3759fcb
Encoding settings : cabac=1 / ref=3 / deblock=1:0:0 / analyse=0x3:0x113 / me=hex / subme=7 / psy=1 / psy_rd=1.00:0.00 / mixed_ref=1 / me_range=16 / chroma_me=1 / trellis=1 / 8x8dct=1 / cqm=0 / deadzone=21,11 / fast_pskip=1 / chroma_qp_offset=-2 / threads=34 / lookahead_threads=5 / sliced_threads=0 / nr=0 / decimate=1 / interlaced=0 / bluray_compat=0 / constrained_intra=0 / bframes=3 / b_pyramid=2 / b_adapt=1 / b_bias=0 / direct=1 / weightb=1 / open_gop=0 / weightp=2 / keyint=250 / keyint_min=25 / scenecut=40 / intra_refresh=0 / rc_lookahead=40 / rc=abr / mbtree=1 / bitrate=6000 / ratetol=1.0 / qcomp=0.60 / qpmin=0 / qpmax=69 / qpstep=4 / ip_ratio=1.40 / aq=1:1.00
Language : Ukrainian
Default : Yes
Forced : No
Color range : Limited
Color primaries : BT.709
Transfer characteristics : BT.709
Matrix coefficients : BT.709

Audio
ID : 2
Format : LC
Format/Info : Advanced Audio Codec Low Complexity
Codec ID : A_AAC-2
Duration : 47 min 20 s
Bit rate : 192 kb/s
Channel(s) : 2 channels
Channel layout : L R
Sampling rate : 48.0 kHz
Frame rate : 46.875 FPS (1024 SPF)
Compression mode : Lossy
Delay relative to video : -80 ms
Stream size : 64.8 MiB (3%)
Language : Ukrainian
Default : Yes
Forced : No
Скріншоти:


Запис: sergiyko


Золотий реліз (завантажене не впливає на рейтинг)
 Трекер:    Зареєстрований   

Завантажити / скачати український серіал



відео для новачків



 Зареєстрований:   2020-10-13 00:32
 Розмір:   24.43 GB 
 Оцінка серіалу:   9/10 (Голосів: 31)
   
sergiyko.5 
VIP


З нами з: 25.02.16
Востаннє: 27.10.20
Повідомлень: 3626

2020-10-07 08:02  
Додав 3-6 серії.
sproza 
Свій


З нами з: 14.11.10
Востаннє: 26.10.20
Повідомлень: 95

2020-10-08 18:50  
Сильний серіал. Дякую, що даєте можливість подивитися не вночі.
sergiyko.5 
VIP


З нами з: 25.02.16
Востаннє: 27.10.20
Повідомлень: 3626

2020-10-08 22:20  
Додав 7-8 серії.
sproza 
Свій


З нами з: 14.11.10
Востаннє: 26.10.20
Повідомлень: 95

2020-10-09 09:06  
А 9 вчора була після півночі? Бо ми не змогли дочекатися.
sergiyko.5 
VIP


З нами з: 25.02.16
Востаннє: 27.10.20
Повідомлень: 3626

2020-10-09 09:22  
Так, 9 записана. Можу додати в реліз, але не хотів часто оновлювати.
Аркадій Дзиґа 
VIP


З нами з: 09.10.14
Востаннє: 27.10.20
Повідомлень: 470

2020-10-09 15:02  
...
sproza 
Свій


З нами з: 14.11.10
Востаннє: 26.10.20
Повідомлень: 95

2020-10-09 18:30  
sergiyko.5
Дякую. Ми чекаємо Happy

sergiyko.5 
VIP


З нами з: 25.02.16
Востаннє: 27.10.20
Повідомлень: 3626

2020-10-09 18:48  
Заключні три серії телеканал покаже в понеділок, у вівторок додам 9-12.
ark_75 
Новенький


З нами з: 03.02.19
Востаннє: 24.10.20
Повідомлень: 1

2020-10-12 20:23  
Додайте, будь ласка, 9 серію
sergiyko.5 
VIP


З нами з: 25.02.16
Востаннє: 27.10.20
Повідомлень: 3626

2020-10-13 00:33  
Додав заключні 9-12 серії.
Приємного перегляду!

vogot 
Новенький


З нами з: 06.11.16
Востаннє: 27.10.20
Повідомлень: 3

2020-10-14 14:56  
Дякую!
Історія родини і всі основні моменти історії країни у 12 серіях.
Побільше знімати треба такі фільми і серіали.

Варджра 
Новенький


З нами з: 28.03.17
Востаннє: 23.10.20
Повідомлень: 13

2020-10-14 17:07  
3 серія. 22 червня, війна, але на вулиці жовті листя це як так? Confused
deneb333 
Новенький


З нами з: 20.04.14
Востаннє: 24.10.20
Повідомлень: 3

2020-10-18 00:02  
чому сім'я козаков а не козаків?
znachok88 
Новенький


З нами з: 26.05.15
Востаннє: 24.10.20
Повідомлень: 9

2020-10-21 21:58  
Я вибачаюсь, може хто підкаже, чому цей серіал не можу дивитись онлайн в телевізорі? Всі інші серіали з цього розділу, йдуть норм, а тут пише що клятий AceStream не може отримати список файлів Sad (1)
Може якимось особливим чином створений торрент?

sergiyko.5 
VIP


З нами з: 25.02.16
Востаннє: 27.10.20
Повідомлень: 3626

2020-10-21 22:03  
znachok88
Може через назву відеофайлів кирилицею.

znachok88 
Новенький


З нами з: 26.05.15
Востаннє: 24.10.20
Повідомлень: 9

2020-10-21 22:10  
sergiyko.5
а наприклад Слід, не так само зроблено?

sergiyko.5 
VIP


З нами з: 25.02.16
Востаннє: 27.10.20
Повідомлень: 3626

2020-10-21 22:14  
znachok88,
По назві так само.
Ще один варіант - не всі телевізори "їдять" Format profile : [email protected] в якому закодовані файли в цьому релізові.

Додано через 56 секунд:

Але я не кодував, завантажені з сайту як є, щоб не погіршувати якість.

znachok88 
Новенький


З нами з: 26.05.15
Востаннє: 24.10.20
Повідомлень: 9

2020-10-21 22:26  
sergiyko.5
а перекодовувати, випадково не збираєтесьWink (1)?

sergiyko.5 
VIP


З нами з: 25.02.16
Востаннє: 27.10.20
Повідомлень: 3626

2020-10-21 22:28  
В 1080p з іншим профілем, вибачте.
А ось є інший мій ріп Саги - https://toloka.to/t115203

znachok88 
Новенький


З нами з: 26.05.15
Востаннє: 24.10.20
Повідомлень: 9

2020-10-21 22:30  
sergiyko.5
так і цей не йде...якісь чари

sergiyko.5 
VIP


З нами з: 25.02.16
Востаннє: 27.10.20
Повідомлень: 3626

2020-10-21 22:32  
Значить не профіль винен. В мене варіанти скінчились.
Vakula_S 
Новенький


З нами з: 16.03.10
Востаннє: 24.10.20
Повідомлень: 21

2020-10-24 08:14  
Залюбки дивився 3-4 серії. Подобалось, був в захваті. Та коли почали міняти артистів, я поник бажанням. Дійшов до дев'ятої і вже не зміг дивитись. Мій мізок вимкнувся сприймати таке.
Дякую за якість.

Ваш часовий пояс: GMT + 2 Години

Нова тема   Відповісти