Чемпіонат Англії 2020/21 | Арсенал - Шеффілд Юнайтед | 4 тур | Setanta Sports (04.10.2020) 720p

Нові коментарі

Нова тема   Відповісти
Останній раз роздавалося misamisk (2021-01-11)
Автор Повідомлення
misamisk 
Поважний учасник


З нами з: 16.10.17
Востаннє: 08.03.21
Повідомлень: 157

2020-10-05 17:08  
Чемпіонат Англії 2020/21 | Арсенал - Шеффілд Юнайтед | 4 тур | Setanta Sports (04.10.2020) 720p

Чемпіонат Англії 2020/21 | Арсенал - Шеффілд Юнайтед | 4 тур | Setanta Sports (04.10.2020) 720p


Телеканал: Setanta Sports Ukraine
Опис:
Матч відбувся 4 жовтня 2020 року в Лондоні на Emirates Stadium.

Матч обслуговували:

Рефері: Лі Мейсон
Асистенти рефері: Марк Скоулз, Тімоті Вуд
Четвертий арбітр: Роберт Джонс
VAR: Андре Маррінер
Асистент VAR: Пітер Кіркап

Коментатор: Ігор Бойко


Тривалість: 01:42:45
Якість:
Відео:
кодек:
розмір кадру: 1280 x 720
бітрейт: 4000 кб/с

Аудіо:
мова: українська
кодек: 2.0
бітрейт: 320 кб/с
Info
General
Unique ID : 204286404947547289635568799339721745850 (0x99B021654CE007CD40EF50A3234365BA)
Complete name : EPL.Matchday3.Arsenal-Sheffield.United.04.10.2020..720p.
Format :
Format version : Version 4
File size : 3.10 GiB
Duration : 1 h 42 min
Overall bit rate mode : Variable
Overall bit rate : 4 323 kb/s
Movie name : EPL Matchday 4. Arsenal - Sheffield United
Encoded date : UTC 2020-10-05 14:40:57
Writing application : v24.0.0 ('Beyond The Pale') 64-bit
Writing library : libebml v1.3.6 + v1.4.9

Video
ID : 1
Format : AVC
Format/Info : Advanced Video Codec
Format profile : [email protected]
Format settings : CABAC / 2 Ref Frames
Format settings, CABAC : Yes
Format settings, Reference frames : 2 frames
Format settings, GOP : M=1, N=25
Codec ID : V_MPEG4/ISO/AVC
Duration : 1 h 42 min
Bit rate mode : Variable
Bit rate : 4 000 kb/s
Maximum bit rate : 768 kb/s
Width : 1 280 pixels
Height : 720 pixels
Display aspect ratio : 16:9
Frame rate mode : Constant
Frame rate : 29.970 (30000/1001) FPS
Original frame rate : 25.000 FPS
Color space : YUV
Chroma subsampling : 4:2:0
Bit depth : 8 bits
Scan type : Progressive
Bits/(Pixel*Frame) : 0.145
Stream size : 2.87 GiB (93%)
Title : Arsenal - Sheffield
Language : Ukrainian
Default : Yes
Forced : No

Audio
ID : 2
Format : LC
Format/Info : Advanced Audio Codec Low Complexity
Codec ID : A_AAC-2
Duration : 1 h 42 min
Bit rate : 320 kb/s
Channel(s) : 2 channels
Channel layout : L R
Sampling rate : 44.1 kHz
Frame rate : 43.066 FPS (1024 SPF)
Compression mode : Lossy
Stream size : 235 MiB (7%)
Title : Commentaries by Ihor Boyko
Default : Yes
Forced : No
Скріншоти
Особиста оцінка: 0 - не дивився
На жаль, зараз не маю можливості роздавати, якщо Ви хочете завантажити цей реліз, пишіть у ПП


Золотий реліз (завантажене не впливає на рейтинг)
 Трекер:    Зареєстрований   

Завантажити / скачати торрент



відео для новачків



 Зареєстрований:   2020-10-05 17:11
 Розмір:   3.1 GB 
 Оцінка:   9.5/10 (Голосів: 2)
   
Ваш часовий пояс: GMT + 2 Години

Нова тема   Відповісти