Східняк (2019) AVC

Нові коментарі

Нова тема   Відповісти
Автор Повідомлення
sergiyko.5 
Забанено
Забанено


З нами з: 25.02.16
Востаннє: 29.10.20
Повідомлень: 3648

2020-10-05 09:02  
Східняк (2019) AVC


Східняк (2019) AVC

Жанр: комедія, драма
Країна: Україна
Кінокомпанія: ІнсайтМедіа
Режисер: Андрій Іванюк
Актори: Богдан Бенюк, Анатолій Максим'юк, Максим Донець, Катерина Степанкова, Володимир Осадчий, Сергій Солопай, Альбіна Сотникова, Алла Мартинюк та інші

Сюжет:
Його позивний "Борода". Він - невгамовний оптиміст, і здатен вирішити будь-яке питання. Ось і цього разу, він - перший, коли треба відправитись у штаб, щоб «вибити» необхідне для забезпечення свого підрозділу. У напарники Борода бере з собою молодого новачка, якого кличуть "Режисер". Разом їм доведеться їхати крізь блокпости, прифронтові міста й села, зустрічатись із військовими і цивільними, потрапляючи у різні халепи - кумедні та не дуже......






Якщо Ви бажаєте підтримати українське - після перегляду, придбайте його ліцензійний перегляд.
Підтримаймо вітчизняне кіно!



Тривалість: 01:32:00
Якість:

Відео: кодек: розмір кадру: 1024 х 432 бітрейт: 1450 кб/с
Аудіо: мова: українська, російська озвучення: оригінал кодек: 5.1 бітрейт: 256 кб/с
Субтитри: (hardsub) мова: українська тип: вбудовані (жорсткі) (На неперекладені місця)
Про файл:
General
Unique ID : 37385289999983767773968643277147763034 (0x1C20251B61A3272C58AA6F2AF1CA715A)
Complete name : D:\Documents\Torrents\FILMS\Східняк.2019..
Format :
Format version : Version 4
File size : 1.10 GiB
Duration : 1 h 32 min
Overall bit rate : 1 707 kb/s
Movie name : Східняк 2019 rip by sergiyko
Encoded date : UTC 2020-10-05 06:56:21
Writing application : v49.0.0 ('Sick Of Losing Soulmates') 64-bit
Writing library : libebml v1.4.0 + v1.6.1
Cover : Yes
Attachments : cover.jpeg

Video
ID : 1
Format : AVC
Format/Info : Advanced Video Codec
Format profile : [email protected]
Format settings : CABAC / 10 Ref Frames
Format settings, CABAC : Yes
Format settings, Reference : 10 frames
Codec ID : V_MPEG4/ISO/AVC
Duration : 1 h 32 min
Bit rate : 1 448 kb/s
Width : 1 024 pixels
Height : 432 pixels
Display aspect ratio : 2.40:1
Frame rate mode : Constant
Frame rate : 24.000 FPS
Color space : YUV
Chroma subsampling : 4:2:0
Bit depth : 8 bits
Scan type : Progressive
Bits/(Pixel*Frame) : 0.136
Stream size : 953 MiB (85%)
Title : Східняк 2019
Writing library : core 152 r2851 ba24899
Encoding settings : cabac=1 / ref=10 / deblock=1:0:0 / analyse=0x3:0x133 / me=umh / subme=10 / psy=1 / psy_rd=1.00:0.00 / mixed_ref=1 / me_range=24 / chroma_me=1 / trellis=2 / 8x8dct=1 / cqm=0 / deadzone=21,11 / fast_pskip=1 / chroma_qp_offset=-2 / threads=13 / lookahead_threads=2 / sliced_threads=0 / nr=0 / decimate=1 / interlaced=0 / bluray_compat=0 / constrained_intra=0 / bframes=8 / b_pyramid=2 / b_adapt=2 / b_bias=0 / direct=3 / weightb=1 / open_gop=0 / weightp=2 / keyint=250 / keyint_min=23 / scenecut=40 / intra_refresh=0 / rc_lookahead=60 / rc=crf / mbtree=1 / crf=19.0 / qcomp=0.60 / qpmin=0 / qpmax=69 / qpstep=4 / ip_ratio=1.40 / aq=1:1.00
Language : Ukrainian
Default : Yes
Forced : No

Audio
ID : 2
Format : LC
Format/Info : Advanced Audio Codec Low Complexity
Codec ID : A_AAC-2
Duration : 1 h 32 min
Bit rate : 256 kb/s
Channel(s) : 6 channels
Channel layout : C L R Ls Rs LFE
Sampling rate : 44.1 kHz
Frame rate : 43.066 FPS (1024 SPF)
Compression mode : Lossy
Stream size : 168 MiB (15%)
Title : Original 5.1ch
Language : Ukrainian
Default : Yes
Forced : No
Скріншоти:


Золотий реліз (завантажене не впливає на рейтинг)
 Трекер:    Зареєстрований   

Завантажити / скачати український фільм



відео для новачків



 Зареєстрований:   2020-10-05 09:02
 Розмір:   1.1 GB 
 Оцінка фільму:   9.2/10 (Голосів: 53)
   
Lacki23 
Новенький


З нами з: 20.07.18
Востаннє: 28.02.21
Повідомлень: 11

2020-10-05 11:30  
Де переглянути легально?
sergiyko.5 
Забанено
Забанено


З нами з: 25.02.16
Востаннє: 29.10.20
Повідомлень: 3648

2020-10-05 11:31  
Lacki23
sweet.tv

roxj 
Свій


З нами з: 31.10.17
Востаннє: 28.02.21
Повідомлень: 69

2020-10-05 13:33  
Дякую за фільм. Бенюк, як завжди на висоті, справжній майстер.
Гонта 
Поважний учасник


З нами з: 16.12.09
Востаннє: 28.02.21
Повідомлень: 181

2020-10-06 14:03  
Видатний фільм!!! Дякую!!!
HarakternyK77 
Свій


З нами з: 03.12.09
Востаннє: 28.02.21
Повідомлень: 104

2020-10-07 17:44  
Гарний фільм! Де можна скачати пісні з нього?
passenger_baloo 
Новенький


З нами з: 29.08.18
Востаннє: 01.03.21
Повідомлень: 5

2020-10-09 18:02  
Нечасто буває щоб ми з дружиною не додивилися український фільм. Ніякуща гра акторів, славнозвісного Бенюка тощо. Матюки, гумор низше поясу - а ми, до речі, сіли до телика з сином 4,5 років, кіно йому показати про наших захисников. Показали, крвмть.
Коротше, висновок: голима кон`юктура, в принципі, як останним часом завжди буває, коли знімає ІнсайтМедіа та її продюсер Володя Филиппов.

Yrko17 
Частий відвідувач


З нами з: 21.11.14
Востаннє: 27.02.21
Повідомлень: 39

2020-10-12 15:24  
Фільм не вартий перегляду. Режисеру Андрію Іванюку: оцінка [ -10 з 12] Кінокомпанія: ІнсайтМедіа, падає "нижче-плінтуса"
andriy_nv 
VIP


З нами з: 27.06.08
Востаннє: 28.02.21
Повідомлень: 1130

2020-10-13 17:48  
гра акторів добра, музика по темі

але жанр роад-муві на любителя

Шейнога Станіслав 
Поважний учасник


З нами з: 16.09.11
Востаннє: 27.02.21
Повідомлень: 179

2020-11-13 22:33  
Надзвичайний фільм, пройняв до глибини. Всім раджу. Також не забуваймо дивитись платно аби підтримати виробника та висловити йому подяку за такий чудовий фільм
irunabobyk 
Новенький


З нами з: 10.09.13
Востаннє: 28.02.21
Повідомлень: 18

2020-11-14 23:26  
Життєво. Впізнала і себе, і своїх. Усе в тему: і актори, і музика, і найдрібніші деталі. Обов'язкове до перегляду!
kennex 
Частий відвідувач


З нами з: 15.03.17
Востаннє: 28.02.21
Повідомлень: 25

2021-02-13 12:54  
Скиньте будь-ласка розмір кадру 720х300 бітрейт.
Myk1209 
VIP


З нами з: 04.02.12
Востаннє: 01.03.21
Повідомлень: 316

2021-02-13 20:14  
ДЯКУЮ!ДЯКУЮ!ДЯКУЮ!
Rostyk74 
Новенький


З нами з: 09.06.08
Востаннє: 28.02.21
Повідомлень: 11

2021-02-14 16:57  
Гарний фільм, ходив на переглляд в кінотеатр. І комедія трошки, і реалії. 5 балів.
eXteSy- 
VIP


З нами з: 06.04.09
Востаннє: 28.02.21
Повідомлень: 2286

2021-02-15 23:27  
Своєрідне військове роуд-муві. Дивитися було дуже цікаво. Ніби й сюжет простенький, а при перегляді тримає. Бенюк свою роль відіграв на відмінно.
8,5/10

Ваш часовий пояс: GMT + 2 Години

Нова тема   Відповісти