Тед Лассо (Сезон 1) / Ted Lasso (Season 1) (2020) 1080p Ukr/Eng | sub Ukr/Multi

Нові коментарі

Нова тема   Відповісти
Автор Повідомлення
Anonymous 







2020-10-05 00:52  
Тед Лассо (Сезон 1) / Ted Lasso (Season 1) (2020) 1080p Ukr/Eng | sub Ukr/Multi

Тед Лассо (Сезон 1) / Ted Lasso (Season 1) (2020) 1080p Ukr/Eng | sub Ukr/Multi


Жанр: комедія, драма, спорт
Країна: США, Велика Британія



Кінокомпанія: Ruby's Tuna, Universal Television, Doozer / Apple TV+
Режисер: Том Маршалл, Деклан Лауні, Елліот Гегарті
Актори: Джейсон Судейкіс, Ганна Веддінгем, Джеремі Свіфт, Філ Данстер, Бретт Голдштейн, Брендан Гант, Нік Мохаммед, Джуно Темпл, Стівен Манас, Біллі Гарріс, Кола Бокінні, Бронсон Вебб, Адам Колборн, Колін Бліт, Крісто Фернандес, Бредлі Міллер

Сюжет:
Цілеспрямована британська бізнес-леді Ребекка Велтон під час розлучення зі своїм чоловіком отримує права на професійний футбольний клуб і першим же ділом звільняє з роботи тренера-жінконенависника, взявшись шукати йому заміну. Вона робить дивний вибір на користь Теда Лассо, нікому не відомого тренера команди з американського футболу з коледжу канзаського міста Вічита, чим шокує гравців, уболівальників і пресу. Перебравшись до Лондона, чоловік, який не усвідомлює різницю між американським і звичайним футболом, приступає до тренувань...


Тривалість: 1 серія: ~ 30 хв. (цілком серій: 10)
Перелік серій
1. Pilot
2. Biscuits
3. Trent Crimm: The Independent
4. For the Children
5. Tan Lines
6. Two Aces
7. Make Rebecca Great Again
8. The Diamond Dogs
9. All Apologies
10. The Hope That Kills You
Якість:
Відео:
кодек:
розмір кадру: 1920 x 960
бітрейт: 10 Mб/с

Аудіо # 1:
мова: українська
переклад: багатоголосий закадровий
кодек: 5.1
бітрейт: 384 кб/с

Аудіо # 2:
мова: англійська
переклад: оригінал
бітрейт: 768 кб/с

Джерело озвучення:
DniproFilm

Субтитри:
мова: українська, англійська, арабська, болгарська, китайська (спрощ.), китайська (трад.), чеська, данська, німецька, грецька, англійська [SDH], іспанська (лат.), іспанська (європ.), естонська, фінська, французька (канад.), французька, гебрейська, гінді, угорська, індонезійська, італійська, японська, литовська, латвійська, малайська, нідерландська, норвезька, польська, португальська, португальська (браз.), словацька, словенська, шведська, тамільська, телугу, тайська, турецька, в'єтнамська, китайська (кант.)
Info
Код:
General
Unique ID                                : 30853483213243485386856280396259890383 (0x17362A2B262D4D864B50E6A2941B94CF)
Complete name                            : Ted Lasso S01E01 (2020) 1080p [Ukr_Eng].
Format                                   :
Format version                           : Version 4
File size                                : 2.42 GiB
Duration                                 : 30 min 56 s
Overall bit rate                         : 11.2 Mb/s
Movie name                               : Тед Лассо (Сезон 1, серія 1) (2020)
Encoded date                             : UTC 2020-10-03 21:23:19
Writing application                      : v50.0.0 ('Awakenings') 64-bit
Writing library                          : libebml v1.4.0 + v1.6.2
Cover                                    : Yes
Attachments                              : cover.jpg

Video
ID                                       : 1
Format                                   : AVC
Format/Info                              : Advanced Video Codec
Format profile                           : [email protected]
Format settings                          : CABAC / 4 Ref Frames
Format settings, CABAC                   : Yes
Format settings, Reference frames        : 4 frames
Codec ID                                 : V_MPEG4/ISO/AVC
Duration                                 : 30 min 55 s
Bit rate                                 : 10.0 Mb/s
Width                                    : 1 920 pixels
Height                                   : 960 pixels
Display aspect ratio                     : 2.000
Frame rate mode                          : Constant
Frame rate                               : 23.976 (24000/1001) FPS
Color space                              : YUV
Chroma subsampling                       : 4:2:0
Bit depth                                : 8 bits
Scan type                                : Progressive
Bits/(Pixel*Frame)                       : 0.227
Stream size                              : 2.17 GiB (90%)
Language                                 : English
Default                                  : Yes
Forced                                   : No
Color range                              : Limited
Color primaries                          : BT.709
Transfer characteristics                 : BT.709
Matrix coefficients                      : BT.709

Audio #1
ID                                       : 2
Format                                   : AC-3
Format/Info                              : Audio Coding 3
Commercial name                          : Dolby Digital
Codec ID                                 : A_AC3
Duration                                 : 30 min 56 s
Bit rate mode                            : Constant
Bit rate                                 : 384 kb/s
Channel(s)                               : 6 channels
Channel layout                           : L R C LFE Ls Rs
Sampling rate                            : 48.0 kHz
Frame rate                               : 31.250 FPS (1536 SPF)
Compression mode                         : Lossy
Stream size                              : 85.0 MiB (3%)
Language                                 : Ukrainian
Service kind                             : Complete Main
Default                                  : Yes
Forced                                   : Yes

Audio #2
ID                                       : 3
Format                                   : E-AC-3 JOC
Format/Info                              : Enhanced AC-3 with Joint Object Coding
Commercial name                          : Dolby Digital Plus with Dolby Atmos
Codec ID                                 : A_EAC3
Duration                                 : 30 min 55 s
Bit rate mode                            : Constant
Bit rate                                 : 768 kb/s
Channel(s)                               : 6 channels
Channel layout                           : L R C LFE Ls Rs
Sampling rate                            : 48.0 kHz
Frame rate                               : 31.250 FPS (1536 SPF)
Compression mode                         : Lossy
Stream size                              : 170 MiB (7%)
Language                                 : English
Service kind                             : Complete Main
Default                                  : No
Forced                                   : No
Complexity index                         : 16
Number of dynamic objects                : 15
Bed channel count                        : 1 channel
Bed channel configuration                : LFE

Text #1
ID                                       : 4
Format                                   : UTF-8
Codec ID                                 : S_TEXT/UTF8
Codec ID/Info                            : UTF-8 Plain Text
Duration                                 : 30 min 39 s
Bit rate                                 : 115 b/s
Count of elements                        : 585
Stream size                              : 25.9 KiB (0%)
Title                                    : Ukrainian
Language                                 : Ukrainian
Default                                  : Yes
Forced                                   : No

Text #2
ID                                       : 5
Format                                   : UTF-8
Codec ID                                 : S_TEXT/UTF8
Codec ID/Info                            : UTF-8 Plain Text
Duration                                 : 30 min 8 s
Bit rate                                 : 87 b/s
Count of elements                        : 571
Stream size                              : 19.2 KiB (0%)
Title                                    : English
Language                                 : English
Default                                  : No
Forced                                   : No

Text #3
ID                                       : 6
Format                                   : UTF-8
Codec ID                                 : S_TEXT/UTF8
Codec ID/Info                            : UTF-8 Plain Text
Duration                                 : 30 min 39 s
Bit rate                                 : 117 b/s
Count of elements                        : 583
Stream size                              : 26.3 KiB (0%)
Title                                    : Arabic
Language                                 : Arabic
Default                                  : No
Forced                                   : No

Text #4
ID                                       : 7
Format                                   : UTF-8
Codec ID                                 : S_TEXT/UTF8
Codec ID/Info                            : UTF-8 Plain Text
Duration                                 : 30 min 39 s
Bit rate                                 : 109 b/s
Count of elements                        : 554
Stream size                              : 24.5 KiB (0%)
Title                                    : Bulgarian
Language                                 : Bulgarian
Default                                  : No
Forced                                   : No

Text #5
ID                                       : 8
Format                                   : UTF-8
Codec ID                                 : S_TEXT/UTF8
Codec ID/Info                            : UTF-8 Plain Text
Duration                                 : 30 min 39 s
Bit rate                                 : 76 b/s
Count of elements                        : 584
Stream size                              : 17.2 KiB (0%)
Title                                    : Chinese Simplified
Language                                 : Chinese
Default                                  : No
Forced                                   : No

Text #6
ID                                       : 9
Format                                   : UTF-8
Codec ID                                 : S_TEXT/UTF8
Codec ID/Info                            : UTF-8 Plain Text
Duration                                 : 30 min 39 s
Bit rate                                 : 69 b/s
Count of elements                        : 585
Stream size                              : 15.7 KiB (0%)
Title                                    : Chinese Traditional
Language                                 : Chinese
Default                                  : No
Forced                                   : No

Text #7
ID                                       : 10
Format                                   : UTF-8
Codec ID                                 : S_TEXT/UTF8
Codec ID/Info                            : UTF-8 Plain Text
Duration                                 : 30 min 39 s
Bit rate                                 : 70 b/s
Count of elements                        : 520
Stream size                              : 15.9 KiB (0%)
Title                                    : Czech
Language                                 : Czech
Default                                  : No
Forced                                   : No

Text #8
ID                                       : 11
Format                                   : UTF-8
Codec ID                                 : S_TEXT/UTF8
Codec ID/Info                            : UTF-8 Plain Text
Duration                                 : 30 min 39 s
Bit rate                                 : 67 b/s
Count of elements                        : 405
Stream size                              : 15.2 KiB (0%)
Title                                    : Danish
Language                                 : Danish
Default                                  : No
Forced                                   : No

Text #9
ID                                       : 12
Format                                   : UTF-8
Codec ID                                 : S_TEXT/UTF8
Codec ID/Info                            : UTF-8 Plain Text
Duration                                 : 30 min 15 s
Bit rate                                 : 77 b/s
Count of elements                        : 577
Stream size                              : 17.1 KiB (0%)
Title                                    : German
Language                                 : German
Default                                  : No
Forced                                   : No

Text #10
ID                                       : 13
Format                                   : UTF-8
Codec ID                                 : S_TEXT/UTF8
Codec ID/Info                            : UTF-8 Plain Text
Duration                                 : 30 min 39 s
Bit rate                                 : 139 b/s
Count of elements                        : 556
Stream size                              : 31.4 KiB (0%)
Title                                    : Greek
Language                                 : Greek
Default                                  : No
Forced                                   : No

Text #11
ID                                       : 14
Format                                   : UTF-8
Codec ID                                 : S_TEXT/UTF8
Codec ID/Info                            : UTF-8 Plain Text
Duration                                 : 30 min 20 s
Bit rate                                 : 95 b/s
Count of elements                        : 652
Stream size                              : 21.2 KiB (0%)
Title                                    : English [SDH]
Language                                 : English
Default                                  : No
Forced                                   : No

Text #12
ID                                       : 15
Format                                   : UTF-8
Codec ID                                 : S_TEXT/UTF8
Codec ID/Info                            : UTF-8 Plain Text
Duration                                 : 30 min 39 s
Bit rate                                 : 79 b/s
Count of elements                        : 579
Stream size                              : 17.8 KiB (0%)
Title                                    : Latin America Spanish
Language                                 : Spanish
Default                                  : No
Forced                                   : No

Text #13
ID                                       : 16
Format                                   : UTF-8
Codec ID                                 : S_TEXT/UTF8
Codec ID/Info                            : UTF-8 Plain Text
Duration                                 : 30 min 45 s
Bit rate                                 : 76 b/s
Count of elements                        : 537
Stream size                              : 17.2 KiB (0%)
Title                                    : European Spanish
Language                                 : Spanish
Default                                  : No
Forced                                   : No

Text #14
ID                                       : 17
Format                                   : UTF-8
Codec ID                                 : S_TEXT/UTF8
Codec ID/Info                            : UTF-8 Plain Text
Duration                                 : 30 min 39 s
Bit rate                                 : 73 b/s
Count of elements                        : 553
Stream size                              : 16.6 KiB (0%)
Title                                    : Estonian
Language                                 : Estonian
Default                                  : No
Forced                                   : No

Text #15
ID                                       : 18
Format                                   : UTF-8
Codec ID                                 : S_TEXT/UTF8
Codec ID/Info                            : UTF-8 Plain Text
Duration                                 : 30 min 39 s
Bit rate                                 : 78 b/s
Count of elements                        : 579
Stream size                              : 17.5 KiB (0%)
Title                                    : Finnish
Language                                 : Finnish
Default                                  : No
Forced                                   : No

Text #16
ID                                       : 19
Format                                   : UTF-8
Codec ID                                 : S_TEXT/UTF8
Codec ID/Info                            : UTF-8 Plain Text
Duration                                 : 30 min 32 s
Bit rate                                 : 70 b/s
Count of elements                        : 512
Stream size                              : 15.7 KiB (0%)
Title                                    : French Canadian
Language                                 : French
Default                                  : No
Forced                                   : No

Text #17
ID                                       : 20
Format                                   : UTF-8
Codec ID                                 : S_TEXT/UTF8
Codec ID/Info                            : UTF-8 Plain Text
Duration                                 : 30 min 32 s
Bit rate                                 : 70 b/s
Count of elements                        : 512
Stream size                              : 15.7 KiB (0%)
Title                                    : French
Language                                 : French
Default                                  : No
Forced                                   : No

Text #18
ID                                       : 21
Format                                   : UTF-8
Codec ID                                 : S_TEXT/UTF8
Codec ID/Info                            : UTF-8 Plain Text
Duration                                 : 30 min 39 s
Bit rate                                 : 113 b/s
Count of elements                        : 584
Stream size                              : 25.5 KiB (0%)
Title                                    : Hebrew
Language                                 : Hebrew
Default                                  : No
Forced                                   : No

Text #19
ID                                       : 22
Format                                   : UTF-8
Codec ID                                 : S_TEXT/UTF8
Codec ID/Info                            : UTF-8 Plain Text
Duration                                 : 30 min 39 s
Bit rate                                 : 203 b/s
Count of elements                        : 585
Stream size                              : 45.7 KiB (0%)
Title                                    : Hindi
Language                                 : Hindi
Default                                  : No
Forced                                   : No

Text #20
ID                                       : 23
Format                                   : UTF-8
Codec ID                                 : S_TEXT/UTF8
Codec ID/Info                            : UTF-8 Plain Text
Duration                                 : 30 min 39 s
Bit rate                                 : 81 b/s
Count of elements                        : 570
Stream size                              : 18.2 KiB (0%)
Title                                    : Hungarian
Language                                 : Hungarian
Default                                  : No
Forced                                   : No

Text #21
ID                                       : 24
Format                                   : UTF-8
Codec ID                                 : S_TEXT/UTF8
Codec ID/Info                            : UTF-8 Plain Text
Duration                                 : 30 min 39 s
Bit rate                                 : 74 b/s
Count of elements                        : 580
Stream size                              : 16.6 KiB (0%)
Title                                    : Indonesian
Language                                 : Indonesian
Default                                  : No
Forced                                   : No

Text #22
ID                                       : 25
Format                                   : UTF-8
Codec ID                                 : S_TEXT/UTF8
Codec ID/Info                            : UTF-8 Plain Text
Duration                                 : 30 min 42 s
Bit rate                                 : 82 b/s
Count of elements                        : 575
Stream size                              : 18.5 KiB (0%)
Title                                    : Italian
Language                                 : Italian
Default                                  : No
Forced                                   : No

Text #23
ID                                       : 26
Format                                   : UTF-8
Codec ID                                 : S_TEXT/UTF8
Codec ID/Info                            : UTF-8 Plain Text
Duration                                 : 30 min 45 s
Bit rate                                 : 63 b/s
Count of elements                        : 539
Stream size                              : 14.3 KiB (0%)
Title                                    : Japanese
Language                                 : Japanese
Default                                  : No
Forced                                   : No

Text #24
ID                                       : 27
Format                                   : UTF-8
Codec ID                                 : S_TEXT/UTF8
Codec ID/Info                            : UTF-8 Plain Text
Duration                                 : 30 min 39 s
Bit rate                                 : 86 b/s
Count of elements                        : 584
Stream size                              : 19.4 KiB (0%)
Title                                    : Lithuanian
Language                                 : Lithuanian
Default                                  : No
Forced                                   : No

Text #25
ID                                       : 28
Format                                   : UTF-8
Codec ID                                 : S_TEXT/UTF8
Codec ID/Info                            : UTF-8 Plain Text
Duration                                 : 30 min 39 s
Bit rate                                 : 79 b/s
Count of elements                        : 551
Stream size                              : 17.8 KiB (0%)
Title                                    : Latvian
Language                                 : Latvian
Default                                  : No
Forced                                   : No

Text #26
ID                                       : 29
Format                                   : UTF-8
Codec ID                                 : S_TEXT/UTF8
Codec ID/Info                            : UTF-8 Plain Text
Duration                                 : 30 min 39 s
Bit rate                                 : 82 b/s
Count of elements                        : 580
Stream size                              : 18.5 KiB (0%)
Title                                    : Malay
Language                                 : Malay
Default                                  : No
Forced                                   : No

Text #27
ID                                       : 30
Format                                   : UTF-8
Codec ID                                 : S_TEXT/UTF8
Codec ID/Info                            : UTF-8 Plain Text
Duration                                 : 30 min 1 s
Bit rate                                 : 58 b/s
Count of elements                        : 414
Stream size                              : 12.8 KiB (0%)
Title                                    : Dutch
Language                                 : Dutch
Default                                  : No
Forced                                   : No

Text #28
ID                                       : 31
Format                                   : UTF-8
Codec ID                                 : S_TEXT/UTF8
Codec ID/Info                            : UTF-8 Plain Text
Duration                                 : 30 min 1 s
Bit rate                                 : 65 b/s
Count of elements                        : 485
Stream size                              : 14.4 KiB (0%)
Title                                    : Norwegian
Language                                 : Norwegian
Default                                  : No
Forced                                   : No

Text #29
ID                                       : 32
Format                                   : UTF-8
Codec ID                                 : S_TEXT/UTF8
Codec ID/Info                            : UTF-8 Plain Text
Duration                                 : 30 min 39 s
Bit rate                                 : 79 b/s
Count of elements                        : 578
Stream size                              : 17.8 KiB (0%)
Title                                    : Polish
Language                                 : Polish
Default                                  : No
Forced                                   : No

Text #30
ID                                       : 33
Format                                   : UTF-8
Codec ID                                 : S_TEXT/UTF8
Codec ID/Info                            : UTF-8 Plain Text
Duration                                 : 30 min 39 s
Bit rate                                 : 72 b/s
Count of elements                        : 561
Stream size                              : 16.3 KiB (0%)
Title                                    : Portuguese
Language                                 : Portuguese
Default                                  : No
Forced                                   : No

Text #31
ID                                       : 34
Format                                   : UTF-8
Codec ID                                 : S_TEXT/UTF8
Codec ID/Info                            : UTF-8 Plain Text
Duration                                 : 30 min 39 s
Bit rate                                 : 76 b/s
Count of elements                        : 582
Stream size                              : 17.3 KiB (0%)
Title                                    : Portuguese Brazilian
Language                                 : Portuguese
Default                                  : No
Forced                                   : No

Text #32
ID                                       : 35
Format                                   : UTF-8
Codec ID                                 : S_TEXT/UTF8
Codec ID/Info                            : UTF-8 Plain Text
Duration                                 : 30 min 39 s
Bit rate                                 : 68 b/s
Count of elements                        : 563
Stream size                              : 15.3 KiB (0%)
Title                                    : Slovak
Language                                 : Slovak
Default                                  : No
Forced                                   : No

Text #33
ID                                       : 36
Format                                   : UTF-8
Codec ID                                 : S_TEXT/UTF8
Codec ID/Info                            : UTF-8 Plain Text
Duration                                 : 30 min 39 s
Bit rate                                 : 59 b/s
Count of elements                        : 582
Stream size                              : 13.4 KiB (0%)
Title                                    : Slovenian
Language                                 : Slovenian
Default                                  : No
Forced                                   : No

Text #34
ID                                       : 37
Format                                   : UTF-8
Codec ID                                 : S_TEXT/UTF8
Codec ID/Info                            : UTF-8 Plain Text
Duration                                 : 30 min 39 s
Bit rate                                 : 74 b/s
Count of elements                        : 580
Stream size                              : 16.7 KiB (0%)
Title                                    : Swedish
Language                                 : Swedish
Default                                  : No
Forced                                   : No

Text #35
ID                                       : 38
Format                                   : UTF-8
Codec ID                                 : S_TEXT/UTF8
Codec ID/Info                            : UTF-8 Plain Text
Duration                                 : 30 min 39 s
Bit rate                                 : 269 b/s
Count of elements                        : 584
Stream size                              : 60.5 KiB (0%)
Title                                    : Tamil
Language                                 : Tamil
Default                                  : No
Forced                                   : No

Text #36
ID                                       : 39
Format                                   : UTF-8
Codec ID                                 : S_TEXT/UTF8
Codec ID/Info                            : UTF-8 Plain Text
Duration                                 : 30 min 39 s
Bit rate                                 : 221 b/s
Count of elements                        : 584
Stream size                              : 49.7 KiB (0%)
Title                                    : Telugu
Language                                 : Telugu
Default                                  : No
Forced                                   : No

Text #37
ID                                       : 40
Format                                   : UTF-8
Codec ID                                 : S_TEXT/UTF8
Codec ID/Info                            : UTF-8 Plain Text
Duration                                 : 30 min 39 s
Bit rate                                 : 202 b/s
Count of elements                        : 584
Stream size                              : 45.4 KiB (0%)
Title                                    : Thai
Language                                 : Thai
Default                                  : No
Forced                                   : No

Text #38
ID                                       : 41
Format                                   : UTF-8
Codec ID                                 : S_TEXT/UTF8
Codec ID/Info                            : UTF-8 Plain Text
Duration                                 : 30 min 39 s
Bit rate                                 : 82 b/s
Count of elements                        : 582
Stream size                              : 18.5 KiB (0%)
Title                                    : T
Language                                 : Turkish
Default                                  : No
Forced                                   : No

Text #39
ID                                       : 42
Format                                   : UTF-8
Codec ID                                 : S_TEXT/UTF8
Codec ID/Info                            : UTF-8 Plain Text
Duration                                 : 30 min 39 s
Bit rate                                 : 101 b/s
Count of elements                        : 579
Stream size                              : 22.8 KiB (0%)
Title                                    : Vietnamese
Language                                 : Vietnamese
Default                                  : No
Forced                                   : No

Text #40
ID                                       : 43
Format                                   : UTF-8
Codec ID                                 : S_TEXT/UTF8
Codec ID/Info                            : UTF-8 Plain Text
Duration                                 : 30 min 39 s
Bit rate                                 : 71 b/s
Count of elements                        : 585
Stream size                              : 16.0 KiB (0%)
Title                                    : Chinese Yue
Language                                 : Chinese
Default                                  : No
Forced                                   : No

Скріншоти


Джерело:


Авторський реліз (завантажувати можна без реєстрації)
 Трекер:    Зареєстрований   

Завантажити / скачати серіал українською



відео для новачків



 Зареєстрований:   2020-10-05 00:52
 Розмір:   24.37 GB 
 Оцінка серіалу:   9.8/10 (Голосів: 11)
   
tsyka 
Свій


З нами з: 12.02.16
Востаннє: 02.12.20
Повідомлень: 66

2020-10-05 14:30  
Навіть і не думав, що цей серіал буде українською.
vic_ 
Новенький


З нами з: 18.12.09
Востаннє: 01.12.20
Повідомлень: 3

2020-10-07 13:00  
Талановита розповідь, але якщо задуматись...
Історія про симпатичного та харизматичного шахрая, який за гроші взявся не за свою справу - тренувати футбольну команду вищої ліги, та загубив ії, під приводом, що всі ми люди, а гра - це не головне

Masanchick 
Попереджень: 1
Попереджень: 1 


З нами з: 08.04.11
Востаннє: 02.12.20
Повідомлень: 618

2020-10-07 13:12  
vic_
Цитата:
Історія про симпатичного та харизматичного шахрая, який за гроші взявся не за свою справу - тренувати футбольну команду вищої ліги, та загубив ії, під приводом, що всі ми люди, а гра - це не головне
А чому шахрай? йому запропонували роботу він погодився, він не розказував нікому, що він великий тренер

vic_ 
Новенький


З нами з: 18.12.09
Востаннє: 01.12.20
Повідомлень: 3

2020-10-07 13:22  
Він погодився на роботу якої не розуміє та свідомо дав людям пусту надію. Замість тренувати команду став маніпулювати людьми. Замість підтягувати командну гру до лідера став опускати його до середнього рівня.

Masanchick 
Попереджень: 1
Попереджень: 1 


З нами з: 08.04.11
Востаннє: 02.12.20
Повідомлень: 618

2020-10-10 17:11  
vic_ написано:
Він погодився на роботу якої не розуміє та свідомо дав людям пусту надію. Замість тренувати команду став маніпулювати людьми. Замість підтягувати командну гру до лідера став опускати його до середнього рівня.

А Ви уважно дивилися серіал?

vic_ 
Новенький


З нами з: 18.12.09
Востаннє: 01.12.20
Повідомлень: 3

2020-10-11 14:19  
Masanchick
Де я помилився? Ви дивились на емоційне забарвлення, я вам даю факти.

hatak 
Поважний учасник


З нами з: 30.04.15
Востаннє: 02.12.20
Повідомлень: 179

2020-11-05 20:15  
Мені сподобалось. Підтримую думку, що центральною ідеєю серіалу є порівняння і в певному розумінні протиставлення всього американського та британського: способу життя, цінностей, англійської мови, моделей поведінки, раціону харчування. І спортивний контекст для цього обрано не випадково: і в США, і в Європі є гра, яку називають футболом, але це настільки різні види спорту, що їх поєднує лише назва. Так само відрізняються і британці від американців. В цілому, серіал — гарна комедія, часто із дуже непоганими жартами: тонкими, вдумливими. Хоча оцінити всі лексичні каламбури та соціокультурні натяки складно не володіючи досконало мовою оригіналу. Але хоча б те, як головний герой сприймає традицію пиття чаю — це зрозуміло усіма мовами і часто “до сліз”. “Ted Lasso” із самого початку вводить глядачів у оману, створюючи враження надлегкої прогнозованої комедії, за своїм змістом серіал значно глибший, ніж це може здатись на перший погляд. Він зачіпає багато сфер життя: починаючи від взаємин у роздягальні футбольного клубу до відповіді на питання, що важливіше: тренувати команду на результат, чи дати можливість гравцям завтра стати кращими ніж вони є сьогодні... Не оминають тем про співвідношення професійного та особистого, романтичні і не дуже стосунки, цькування у колективах, а також як можуть розкриватись люди, коли потрапляють у сприятливі для розвитку умови. Повчальні морально-етичні моменти присутні в кожному епізоді. Взагалі, сама картинка дуже приємно виглядає — яскраві теплі кольори в поєднанні із симпатичними акторами — створюють настрій. В головному персонажі вражає його непробивна позитивність, яка дивує всіх навкруги: ЩО б не відбувалось, він сповнений оптимізму і щиро посміхається усьому світу. Така модель поведінки варта наслідування. І мене не дивує, що ще не знявши 2-ий сезон, серіал вже продовжили на 3-ій...
Далекий від думки, що фільм орієнтований на сімейний перегляд чи, тим більше, на дитячу аудиторію. Жарти не за межею пристойності, але все одно — вони просто для більш старших глядачів. Зокрема, інколи згадуються елементи дорослого життя — різні форми близькості від blоwjоb до fооtjоb. Ні, я розумію, що сім’ї різні бувають, але все таки...

Ваш часовий пояс: GMT + 2 Години

Нова тема   Відповісти