Східняк (2019) 720p

Нові коментарі

Нова тема   Відповісти
Автор Повідомлення
sergiyko.5 
Забанено
Забанено


З нами з: 25.02.16
Востаннє: 29.10.20
Повідомлень: 3650

2020-10-04 23:39  
Східняк (2019) 720p


Східняк (2019) 720p

Жанр: комедія, драма
Країна: Україна
Кінокомпанія: ІнсайтМедіа
Режисер: Андрій Іванюк
Актори: Богдан Бенюк, Анатолій Максим'юк, Максим Донець, Катерина Степанкова, Володимир Осадчий, Сергій Солопай, Альбіна Сотникова, Алла Мартинюк та інші

Сюжет:
Його позивний "Борода". Він - невгамовний оптиміст, і здатен вирішити будь-яке питання. Ось і цього разу, він - перший, коли треба відправитись у штаб, щоб «вибити» необхідне для забезпечення свого підрозділу. У напарники Борода бере з собою молодого новачка, якого кличуть "Режисер". Разом їм доведеться їхати крізь блокпости, прифронтові міста й села, зустрічатись із військовими і цивільними, потрапляючи у різні халепи - кумедні та не дуже......






Якщо Ви бажаєте підтримати українське - після перегляду, придбайте його ліцензійний перегляд.
Підтримаймо вітчизняне кіно!



Тривалість: 01:32:00
Якість:

Відео: кодек: розмір кадру: 1280 х 536 бітрейт: 2500 кб/с
Аудіо: мова: українська, російська озвучення: оригінал кодек: 5.1 бітрейт: 256 кб/с
Субтитри: (hardsub) мова: українська тип: вбудовані (жорсткі) (На неперекладені місця)
Про файл:
General
Unique ID : 101694568821874462799477632984899441432 (0x4C81A959DEC225E7CD180F4035CCD318)
Complete name : D:\Documents\Torrents\FILMS\Східняк.2019.720p..
Format :
Format version : Version 4
File size : 1.75 GiB
Duration : 1 h 32 min
Overall bit rate : 2 717 kb/s
Movie name : Східняк 2019 rip by sergiyko
Encoded date : UTC 2020-10-04 22:58:11
Writing application : v49.0.0 ('Sick Of Losing Soulmates') 64-bit
Writing library : libebml v1.4.0 + v1.6.1
Cover : Yes
Attachments : cover.jpeg

Video
ID : 1
Format : AVC
Format/Info : Advanced Video Codec
Format profile : [email protected]
Format settings : CABAC / 12 Ref Frames
Format settings, CABAC : Yes
Format settings, Reference : 12 frames
Codec ID : V_MPEG4/ISO/AVC
Duration : 1 h 32 min
Bit rate : 2 459 kb/s
Width : 1 280 pixels
Height : 536 pixels
Display aspect ratio : 2.40:1
Frame rate mode : Constant
Frame rate : 24.000 FPS
Color space : YUV
Chroma subsampling : 4:2:0
Bit depth : 8 bits
Scan type : Progressive
Bits/(Pixel*Frame) : 0.149
Stream size : 1.58 GiB (90%)
Title : Східняк 2019
Writing library : core 152 r2851 ba24899
Encoding settings : cabac=1 / ref=12 / deblock=1:0:0 / analyse=0x3:0x133 / me=umh / subme=10 / psy=1 / psy_rd=1.00:0.00 / mixed_ref=1 / me_range=24 / chroma_me=1 / trellis=2 / 8x8dct=1 / cqm=0 / deadzone=21,11 / fast_pskip=1 / chroma_qp_offset=-2 / threads=17 / lookahead_threads=2 / sliced_threads=0 / nr=0 / decimate=1 / interlaced=0 / bluray_compat=0 / constrained_intra=0 / bframes=8 / b_pyramid=2 / b_adapt=2 / b_bias=0 / direct=3 / weightb=1 / open_gop=0 / weightp=2 / keyint=250 / keyint_min=23 / scenecut=40 / intra_refresh=0 / rc_lookahead=60 / rc=crf / mbtree=1 / crf=18.0 / qcomp=0.60 / qpmin=0 / qpmax=69 / qpstep=4 / ip_ratio=1.40 / aq=1:1.00
Language : Ukrainian
Default : Yes
Forced : No

Audio
ID : 2
Format : LC
Format/Info : Advanced Audio Codec Low Complexity
Codec ID : A_AAC-2
Duration : 1 h 32 min
Bit rate : 256 kb/s
Channel(s) : 6 channels
Channel layout : C L R Ls Rs LFE
Sampling rate : 44.1 kHz
Frame rate : 43.066 FPS (1024 SPF)
Compression mode : Lossy
Stream size : 168 MiB (9%)
Title : Original 5.1ch
Language : Ukrainian
Default : Yes
Forced : No
Скріншоти:


Золотий реліз (завантажене не впливає на рейтинг)
 Трекер:    Зареєстрований   

Завантажити / скачати український фільм



відео для новачків



 Зареєстрований:   2020-10-05 01:02
 Розмір:   1.75 GB 
 Оцінка фільму:   8.6/10 (Голосів: 37)
   
ol_ha_ol 
Частий відвідувач


З нами з: 28.09.08
Востаннє: 24.11.20
Повідомлень: 36

2020-10-05 06:22  
Агов, налітай, дивись українське!
qarty1 
VIP


З нами з: 01.11.09
Востаннє: 24.11.20
Повідомлень: 398

2020-10-22 18:38  
дуже круто знято, на одному дихані глянув. Герої не вмирають.

крута пісня https://youtu.be/0YCmjyRtNEc

1985ad 
Частий відвідувач


З нами з: 27.04.17
Востаннє: 24.11.20
Повідомлень: 48

2020-10-23 09:32  
qarty1 написано:
крута пісня

Там, здається, вона не одна така, забув після перегляду запитати - чи нема в когось повного саундтреку?

Форкуш 
VIP


З нами з: 03.02.10
Востаннє: 24.11.20
Повідомлень: 2878

2020-10-26 23:50  
Абсолютно нудна картина. 6/10
baydala75 
Новенький


З нами з: 17.10.13
Востаннє: 21.11.20
Повідомлень: 4

2020-11-19 09:23  
1985ad
Це група Пирятин пісня Арта наче б то називається.... я знайшов в гугл плей мьюзик у себе

1985ad 
Частий відвідувач


З нами з: 27.04.17
Востаннє: 24.11.20
Повідомлень: 48

2020-11-19 12:07  
baydala75
Так, я прочитав назву за посиланням на ютьюбі, але мав на увазі саундтрек повністю, тобто всі пісні, що є у фільмі. А Пирятина на толоці є два альбоми.

datsko1 
Новенький


З нами з: 10.07.15
Востаннє: 21.11.20
Повідомлень: 21

2020-11-21 22:26  
непогане кіно, без награного пафосного патріотизму, тверде 8 з 10
Ваш часовий пояс: GMT + 2 Години

Нова тема   Відповісти