Південний Парк. Пандемічний спецвипуск / South Park. The Pandemic Special (2020) 1080p Ukr/Eng

Нові коментарі

Нова тема   Відповісти
Автор Повідомлення
simpsonsua 
VIP


З нами з: 13.03.18
Востаннє: 10.04.21
Повідомлень: 357

2020-10-03 20:33  
AVC | 1080p

Південний Парк. Пандемічний спецвипуск / South Park. The Pandemic Special (2020) 1080p Ukr/Eng


Південний Парк. Пандемічний спецвипуск / South Park. The Pandemic Special (2020) 1080p Ukr/Eng


Якщо вам сподобалося озвучення мультсеріалу,
то ви можете підтримати нас за посиланням
ТИЦЬ


Жанр: комедія, пародія, чорний гумор, сатира
Країна: США



Кінокомпанія: Braniff Productions, Comedy Partners / Comedy Central
Режисер: Трей Паркер
Актори/ролі озвучують: Мет Стоун, Трей Паркер, Айзек Хейз, Мері Бергман, Еліза Шнайдер, Мона Маршалл, Ейпріл Стюарт, Джон Хенсен, Дженніфер Хоуелл, Едріен Бірд та інші.

Сюжет:
Спецвипуск "Південного Парку" присвячений пандемії COVID-19.


Перекладено та озвучено студією сайту simpsonsua.tv


Тривалість: 00:47:25

Якість: 1080p
Відео:
кодек:
розмір кадру: 1920 х 1080
бітрейт: ~ 8 000 кб/с

Аудіо # 1:
мова: українська | "simpsonsua.tv"
озвучення: професійне багатоголосе закадрове
кодек: 5.1
бітрейт: 448 кб/с

Аудіо # 2:
мова: англійська
переклад: оригінал
кодек: 5.1
бітрейт: 384 кб/с
Info
Format :
Format version : Version 4
File size : 3.01 GiB
Duration : 47 min 25 s
Overall bit rate mode : Variable
Overall bit rate : 9 083 kb/s
Movie name : Південний Парк. Пандемічний спецвипуск / South Park. The Pandemic Special - S04E01 (2020) 1080p [Ukr.Eng] [simpsonsua.tv]
Encoded date : UTC 2020-10-03 17:23:57
Writing application : v50.0.0 ('Awakenings') 64-bit
Writing library : libebml v1.4.0 + v1.6.2
Cover : Yes
Attachments : cover.jpg

Video
ID : 1
Format : AVC
Format/Info : Advanced Video Codec
Format profile : [email protected]
Format settings : CABAC / 4 Ref Frames
Format settings, CABAC : Yes
Format settings, Reference frames : 4 frames
Codec ID : V_MPEG4/ISO/AVC
Duration : 47 min 25 s
Bit rate mode : Variable
Bit rate : 8 248 kb/s
Maximum bit rate : 12.4 Mb/s
Width : 1 920 pixels
Height : 1 080 pixels
Display aspect ratio : 16:9
Frame rate mode : Constant
Frame rate : 23.976 (24000/1001) FPS
Color space : YUV
Chroma subsampling : 4:2:0
Bit depth : 8 bits
Scan type : Progressive
Bits/(Pixel*Frame) : 0.166
Stream size : 2.73 GiB (91%)
Language : English
Default : Yes
Forced : No
Color range : Limited
Color primaries : BT.709
Transfer characteristics : BT.709
Matrix coefficients : BT.709

Audio #1
ID : 2
Format : AC-3
Format/Info : Audio Coding 3
Commercial name : Dolby Digital
Codec ID : A_AC3
Duration : 47 min 25 s
Bit rate mode : Constant
Bit rate : 448 kb/s
Channel(s) : 6 channels
Channel layout : L R C LFE Ls Rs
Sampling rate : 48.0 kHz
Frame rate : 31.250 FPS (1536 SPF)
Compression mode : Lossy
Stream size : 152 MiB (5%)
Title : simpsonsua.tv
Language : Ukrainian
Service kind : Complete Main
Default : Yes
Forced : Yes

Audio #2
ID : 3
Format : AC-3
Format/Info : Audio Coding 3
Commercial name : Dolby Digital
Codec ID : A_AC3
Duration : 47 min 25 s
Bit rate mode : Constant
Bit rate : 384 kb/s
Channel(s) : 6 channels
Channel layout : L R C LFE Ls Rs
Sampling rate : 48.0 kHz
Frame rate : 31.250 FPS (1536 SPF)
Compression mode : Lossy
Stream size : 130 MiB (4%)
Title : Original
Language : English
Service kind : Complete Main
Default : No
Forced : No
Скріншоти

Перекладено та озвучено студією сайту:


Авторський реліз (завантажувати можна без реєстрації)
 Трекер:    Зареєстрований   

Завантажити / скачати мультфільм українською



відео для новачків



 Зареєстрований:   2020-10-03 20:33
 Розмір:   3.01 GB 
 Оцінка мультсеріалу:   9.3/10 (Голосів: 13)
   
furmanyuk 
Новенький


З нами з: 01.11.18
Востаннє: 10.04.21
Повідомлень: 1

2021-03-11 12:54  
Чекаємо на спецвипуск про вакцинацію)
Ваш часовий пояс: GMT + 2 Години

Нова тема   Відповісти