Утікачки (Сезон 2) / Wanted (Season 2) (2017) 1080p Ukr/Eng

Нові коментарі

Нова тема   Відповісти
Автор Повідомлення
DniproFilm 
VIP


З нами з: 10.10.18
Востаннє: 19.11.20
Повідомлень: 443

2020-10-03 15:17  
Утікачки (Сезон 2) / Wanted (Season 2) (2017) 1080p Ukr/Eng

Утікачки (Сезон 2) / Wanted (Season 2) (2017) 1080p Ukr/Eng


Жанр: детектив, кримінал, драма
Країна: Австралія



Кінокомпанія / телеканал: Screen Australia, Seven Network, Screen Queensland
Режисер: Пітер Темплмен, Дженіфер Лісі, Роберт Саркіс
Актори/ролі озвучують: Ребекка Гібні, Джералдіна Хейквілл, Ентоні Фелан, Ніколас Белл, Стівен Пікок, Чарльз Коттье, Мирко Грілліні, Тодд Леві, Дін О'горман, Вероніка Нів, Пітер Віні та iншi

Сюжет:
Лола — вже немолода самотня жінка, яка виховує дорослого сина, з яким вона практично не бачиться. Щоб хоч якось звести кінці з кінцями і мати можливість заплатити за оренду житла, нашій героїні доводиться понаднормово працювати у вихідні дні продавчинею в місцевому супермаркеті.
Челсі — молода успішна дівчина, яка працює в великій фінансовій компанії, де, як і в будь-якій організації, тісно пов'язаній з обігом грошей, існує маса термінових і невідкладних справ, що вимагають швидкого виконання і підвищеної уваги, що забирає чимало сил.
До певного моменту наших абсолютно протилежних героїнь об'єднувало лише одне — автобусна зупинка, де вони періодично бачилися після роботи, практично не звертаючи одна на одну уваги. Одного разу, як завжди чекаючи свій автобус, Лола і Челсі стають свідками озброєного нападу, після чого єдиний зловмисник, що вижив, змушує їх залізти в багажник і відвозить в відлюдне місце, щоб згодом розправитися з непотрібними свідками.
Але все пішло зовсім не так, як він планував, і тепер наші героїні є «щасливими володарями» викраденого автомобіля, на задньому сидінні якого знаходиться величезна сумка, повністю набита грошима...


Тривалість: 1 серія: ~ 45 хв. (цілком серій: 6)
Перелік серій

01. Episode 2.1
02. Episode 2.2
03. Episode 2.3
04. Episode 2.4
05. Episode 2.5
06. Episode 2.6
Якість:
Відео:
кодек:
розмір кадру: 1920x1080
бітрейт: ~7000 кб/с

Аудіо # 1:
мова: українська
переклад: багатоголосий закадровий | DniproFilm
кодек: 2.0
бітрейт: 192 кб/с

Аудіо # 2:
мова: англійська
переклад: оригінал
кодек: 2.0
бітрейт: 384 кб/с
Info
Код:

Video
ID                          : 1
Format                      : AVC
Format/Info                 : Advanced Video Codec
Format profile              : [email protected]
Format settings             : CABAC / 4 Ref Frames
Format settings, CABAC      : Yes
Format settings, Reference  : 4 frames
Codec ID                    : V_MPEG4/ISO/AVC
Duration                    : 42 min 18 s
Bit rate                    : 6 815 kb/s
Width                       : 1 920 pixels
Height                      : 1 080 pixels
Display aspect ratio        : 16:9
Frame rate mode             : Constant
Frame rate                  : 25.000 FPS
Color space                 : YUV
Chroma subsampling          : 4:2:0
Bit depth                   : 8 bits
Scan type                   : Progressive
Bits/(Pixel*Frame)          : 0.131
Stream size                 : 2.01 GiB (92%)
Language                    : English
Default                     : Yes
Forced                      : No
Color range                 : Limited
Color primaries             : BT.709
Transfer characteristics    : BT.709
Matrix coefficients         : BT.709

Audio #1
ID                          : 2
Format                      : AC-3
Format/Info                 : Audio Coding 3
Commercial name             : Dolby Digital
Codec ID                    : A_AC3
Duration                    : 42 min 18 s
Bit rate mode               : Constant
Bit rate                    : 192 kb/s
Channel(s)                  : 2 channels
Channel layout              : L R
Sampling rate               : 48.0 kHz
Frame rate                  : 31.250 FPS (1536 SPF)
Compression mode            : Lossy
Stream size                 : 58.1 MiB (3%)
Title                       : DniproFilm
Language                    : Ukrainian
Service kind                : Complete Main
Default                     : Yes
Forced                      : No

Audio #2
ID                          : 3
Format                      : AC-3
Format/Info                 : Audio Coding 3
Commercial name             : Dolby Digital
Codec ID                    : A_AC3
Duration                    : 42 min 18 s
Bit rate mode               : Constant
Bit rate                    : 384 kb/s
Channel(s)                  : 2 channels
Channel layout              : L R
Sampling rate               : 48.0 kHz
Frame rate                  : 31.250 FPS (1536 SPF)
Compression mode            : Lossy
Stream size                 : 116 MiB (5%)
Language                    : English
Service kind                : Complete Main
Default                     : No
Forced                      : No
Скріншоти





Джерело озвучення: DniproFilm


Авторський реліз (завантажувати можна без реєстрації)
 Трекер:    Зареєстрований   

Завантажити / скачати серіал українською



відео для новачків



 Зареєстрований:   2020-10-03 15:17
 Розмір:   14.01 GB 
 Оцінка серіалу:   10/10 (Голосів: 2)
   
Vitt 
Поважний учасник


З нами з: 17.01.11
Востаннє: 25.11.20
Повідомлень: 165

2020-10-03 20:36  
Блін, в торенті першого сезону писав, що опис - туфта!

Звідки ви це копіюєте?
Коменти не читаєте?

Я був про вас кращої думки :(

Vitt 
Поважний учасник


З нами з: 17.01.11
Востаннє: 25.11.20
Повідомлень: 165

2020-10-09 21:54  
:)
Тепер з описом все добре.
Дякую.

Ваш часовий пояс: GMT + 2 Години

Нова тема   Відповісти