Без громадянства (Сезон 1, Епізод 01-05) / Stateless (Season 1, Episode 01-05) (2020) 720p Ukr/Eng | Sub Ukr/Eng

Нові коментарі

Нова тема   Відповісти
Автор Повідомлення
dragheart 
Свій


З нами з: 27.01.16
Востаннє: 27.10.20
Повідомлень: 118

2020-10-03 15:06  
Без громадянства (Сезон 1, Епізод 01-05) / Stateless (Season 1, Episode 01-05) (2020) 720p Ukr/Eng | Sub Ukr/Eng



Альтернативний постер




Подяка за постери : mrgalser


Жанр: драма
Країна: Австралія



Кінокомпанія: Screen Australia, Australian Broadcasting Corporation (ABC), The South Australian Film Corporation
Режисер: Емма Фрімен; Джослін Мурхаус
Актори: Івонн Страховскі, Джай Кортні, Кейт Бланшетт, Ашер Кедді, Домінік Вест

Сюжет:
Кілька незнайомців зустрічаються в одному місці - австралійському таборі для біженців, де ті очікують подальших розпоряджень місцевої влади.Потрапили вони туди з різних причин. Кем Семфорд влаштовується сюди на роботу охоронцем, щоб прогодувати сім'ю, але стикається з упередженим ставленням колег до біженців з країн третього світу. Амбітна чиновниця Клер Ковіц приїжджає в центр для ліквідації медіаскандалу. Афганець Амір втік до Австралії від жахів війни і намагається розшукати сім'ю, з якою був розлучений. І Софі Вернер - енергійна австралійська стюардеса, яку так замучила рідна сім'я, що вона спочатку втекла в секту особистісного зростання, а потім і зовсім опинилася в центрі для мігрантів, видавши себе за німкеню.


Тривалість: 1 серія: ~55:00 (цілком серій: 6)
Перелік серій
1. "The Circumstances in Which They Come"
2. "Incognita"
3. "The Right Thing"
4. "Run Sofie Run"
5. "Panis Angelicus"
6. "The Seventh Circle"
Якість:
Відео:
кодек:
розмір кадру: 1280 х 720
бітрейт: 2500 кб/с

Аудіо # 1:
мова: українська
переклад: двоголосий закадровий
кодек: 5.1
бітрейт: 384 кб/с
ролі озвучують: Olegolas, Artymko
таймінг: KohinSan

Аудіо # 2:
мова: англійська
переклад: оригінал
кодек: 5.1
бітрейт: 640 кб/с

Субтитри:
мова: українська
тип: програмні (м'які)
формат: *.srt

Субтитри:
мова: англійська
тип: програмні (м'які)
формат: *.srt

Info
General
Unique ID : 218964319212734310827923520259219675336 (0xA4BAFE710B4E40F649C624B3357658C8)
Complete name : F:\Stateless.S01.2020WEBRip.720p.Ukr.Eng\Stateless.S01.E01.2020WEBRip.720p.Ukr.Eng.
Format :
Format version : Version 4 / Version 2
File size : 1.36 GiB
Duration : 55mn 53s
Overall bit rate mode : Variable
Overall bit rate : 3 482 Kbps
Encoded date : UTC 2020-10-03 11:42:49
Writing application : v23.0.0 ('The Bride Said No') 64-bit
Writing library : libebml v1.3.6 + v1.4.9
DURATION : 00:55:53.440000000
NUMBER_OF_FRAMES : 104795
NUMBER_OF_BYTES : 160965120
_STATISTICS_WRITING_APP : v23.0.0 ('The Bride Said No') 64-bit
_STATISTICS_WRITING_DATE_UTC : 2020-10-03 11:42:49
_STATISTICS_TAGS : BPS DURATION NUMBER_OF_FRAMES NUMBER_OF_BYTES

Video
ID : 1
Format : AVC
Format/Info : Advanced Video Codec
Format profile : [email protected]
Format settings, CABAC : Yes
Format settings, ReFrames : 3 frames
Codec ID : V_MPEG4/ISO/AVC
Duration : 55mn 53s
Bit rate mode : Variable
Bit rate : 2 490 Kbps
Maximum bit rate : 3 735 Kbps
Width : 1 280 pixels
Height : 720 pixels
Display aspect ratio : 16:9
Frame rate : 25.000 fps
Color space : YUV
Chroma subsampling : 4:2:0
Bit depth : 8 bits
Scan type : Progressive
Bits/(Pixel*Frame) : 0.108
Stream size : 955 MiB (69%)
Writing library : core 148 r2717 0d2410d
Encoding settings : cabac=1 / ref=3 / deblock=1:0:0 / analyse=0x1:0x111 / me=umh / subme=10 / psy=1 / psy_rd=1.00:0.00 / mixed_ref=1 / me_range=24 / chroma_me=1 / trellis=2 / 8x8dct=0 / cqm=0 / deadzone=21,11 / fast_pskip=1 / chroma_qp_offset=-2 / threads=8 / lookahead_threads=1 / sliced_threads=0 / nr=0 / decimate=1 / interlaced=0 / bluray_compat=0 / stitchable=1 / constrained_intra=0 / bframes=2 / b_pyramid=0 / b_adapt=2 / b_bias=0 / direct=3 / weightb=1 / open_gop=0 / weightp=2 / keyint=250 / keyint_min=25 / scenecut=0 / intra_refresh=0 / rc_lookahead=50 / rc=2pass / mbtree=1 / bitrate=2490 / ratetol=1.0 / qcomp=0.50 / qpmin=6 / qpmax=51 / qpstep=4 / cplxblur=20.0 / qblur=0.5 / vbv_maxrate=3735 / vbv_bufsize=4980 / nal_hrd=vbr / filler=0 / ip_ratio=1.40 / aq=1:1.00
Language : English
Default : Yes
Forced : No

Audio #1
ID : 2
Format : AC-3
Format/Info : Audio Coding 3
Mode extension : CM (complete main)
Codec ID : A_AC3
Duration : 55mn 53s
Bit rate mode : Constant
Bit rate : 384 Kbps
Channel(s) : 6 channels
Channel positions : Front: L C R, Side: L R, LFE
Sampling rate : 48.0 KHz
Bit depth : 16 bits
Compression mode : Lossy
Stream size : 154 MiB (11%)
Language : Ukrainian
Default : Yes
Forced : No

Audio #2
ID : 3
Format : E-AC-3
Format/Info : Audio Coding 3
Codec ID : A_EAC3
Duration : 55mn 53s
Bit rate mode : Constant
Bit rate : 640 Kbps
Channel(s) : 6 channels
Channel positions : Front: L C R, Side: L R, LFE
Sampling rate : 48.0 KHz
Compression mode : Lossy
Stream size : 256 MiB (18%)
Language : English
Default : No
Forced : No

Text #1
ID : 4
Format : UTF-8
Codec ID : S_TEXT/UTF8
Codec ID/Info : UTF-8 Plain Text
Language : Ukrainian
Default : Yes
Forced : No

Text #2
ID : 5
Format : UTF-8
Codec ID : S_TEXT/UTF8
Codec ID/Info : UTF-8 Plain Text
Language : English
Default : No
Forced : No
Скріншоти
[center]



Джерело:
Особиста оцінка: 9 - давно не бачив настільки якісне кіно


Авторський реліз (завантажувати можна без реєстрації)
 Трекер:    Зареєстрований   

Завантажити / скачати серіал українською



відео для новачків



 Зареєстрований:   2020-10-27 12:18
 Розмір:   6.58 GB 
 Оцінка серіалу:   10/10 (Голосів: 4)
   
dragheart 
Свій


З нами з: 27.01.16
Востаннє: 27.10.20
Повідомлень: 118

2020-10-09 14:14  
Додано 2-у серію
dragheart 
Свій


З нами з: 27.01.16
Востаннє: 27.10.20
Повідомлень: 118

2020-10-15 15:35  
Додано 3-ю серію
dragheart 
Свій


З нами з: 27.01.16
Востаннє: 27.10.20
Повідомлень: 118

2020-10-21 13:53  
Додано 4-у серію
dragheart 
Свій


З нами з: 27.01.16
Востаннє: 27.10.20
Повідомлень: 118

2020-10-27 12:20  
Додано 5-у серію
Ваш часовий пояс: GMT + 2 Години

Нова тема   Відповісти