Правило Комі (Сезон 1) / The Comey Rule (Season 1) (2020) 1080p Ukr/Eng

Нові коментарі

Нова тема   Відповісти
Автор Повідомлення
Anonymous 







2020-10-02 21:54  
Правило Комі (Сезон 1) / The Comey Rule (Season 1) (2020) 1080p Ukr/Eng

Правило Комі (Сезон 1) / The Comey Rule (Season 1) (2020) 1080p Ukr/Eng


Жанр: драма, міні-серіал
Країна: США



Кінокомпанія: CBS Studios, Home Run Productions, Secret Hideout / Showtime
Режисер: Біллі Рей
Актори: Джефф Деніелс, Брендан Глісон, Голлі Гантер, Т.Р. Найт, Майкл Келлі, Дженніфер Ель, Скут МакНейрі, Джонатан Бенкс, Уна Чаплін, Емі Саймец, Стівен Паскуале, Стів Зіссіс, Шон Дойл, Брайан д'Арсі Джеймс, Кінгслі Бен-Адір, Вільям Седлер

Сюжет:
Проєкт є екранізацією мемуарів «A Higher Loyalty» за авторством колишнього глави ФБР Джеймса Комі, який розповів про те, як росіяни посадили в Овальний кабінет Дональда Трампа. Міні-серіал показує безпосередньо вибори і наступні за ними події, в центрі яких — протистояння Комі і Трампа, двох впливових фігур, чиї різні погляди на ситуацію, що склалася розвели їх по різні боки барикад.


Тривалість: 01:35:27 + 01:55:06 (цілком серій: 2)
Перелік серій
01 - Night One
02 - Night Two
Якість:
Відео:
кодек:
розмір кадру: 1920 x 1080
бітрейт: 5591 кб/с

Аудіо # 1:
мова: українська
переклад: багатоголосий закадровий
кодек: 5.1
бітрейт: 384 кб/с

Аудіо # 2:
мова: англійська
переклад: оригінал
кодек: 5.1
бітрейт: 445 кб/с

Джерело озвучення:
DniproFilm

Субтитри:
мова: англійська
тип: програмні (м'які)
формат: *.srt
Info
Код:
General
Unique ID                                : 193520503718796279057577992121998609541 (0x9196B17BE1046050542AADC2BC578C85)
Complete name                            : The Comey Rule S01E01 (2020) 1080p [Ukr_Eng] [Hurtom].
Format                                   :
Format version                           : Version 4
File size                                : 4.28 GiB
Duration                                 : 1 h 35 min
Overall bit rate                         : 6 423 kb/s
Movie name                               : Правило Комі (Сезон 1, серія 1) (2020)
Encoded date                             : UTC 2020-10-01 21:33:45
Writing application                      : v50.0.0 ('Awakenings') 64-bit
Writing library                          : libebml v1.4.0 + v1.6.2
Cover                                    : Yes
Attachments                              : cover.jpg

Video
ID                                       : 1
Format                                   : AVC
Format/Info                              : Advanced Video Codec
Format profile                           : [email protected]
Format settings                          : CABAC / 4 Ref Frames
Format settings, CABAC                   : Yes
Format settings, Reference frames        : 4 frames
Codec ID                                 : V_MPEG4/ISO/AVC
Duration                                 : 1 h 35 min
Bit rate                                 : 5 591 kb/s
Width                                    : 1 920 pixels
Height                                   : 1 080 pixels
Display aspect ratio                     : 16:9
Frame rate mode                          : Constant
Frame rate                               : 23.976 (24000/1001) FPS
Color space                              : YUV
Chroma subsampling                       : 4:2:0
Bit depth                                : 8 bits
Scan type                                : Progressive
Bits/(Pixel*Frame)                       : 0.112
Stream size                              : 3.73 GiB (87%)
Default                                  : Yes
Forced                                   : No
Color range                              : Limited
Matrix coefficients                      : BT.709

Audio #1
ID                                       : 2
Format                                   : AC-3
Format/Info                              : Audio Coding 3
Commercial name                          : Dolby Digital
Codec ID                                 : A_AC3
Duration                                 : 1 h 35 min
Bit rate mode                            : Constant
Bit rate                                 : 384 kb/s
Channel(s)                               : 6 channels
Channel layout                           : L R C LFE Ls Rs
Sampling rate                            : 48.0 kHz
Frame rate                               : 31.250 FPS (1536 SPF)
Compression mode                         : Lossy
Stream size                              : 262 MiB (6%)
Language                                 : Ukrainian
Service kind                             : Complete Main
Default                                  : Yes
Forced                                   : Yes

Audio #2
ID                                       : 3
Format                                   : LC
Format/Info                              : Advanced Audio Codec Low Complexity
Codec ID                                 : A_AAC-2
Duration                                 : 1 h 35 min
Bit rate                                 : 445 kb/s
Channel(s)                               : 6 channels
Channel layout                           : C L R Ls Rs LFE
Sampling rate                            : 48.0 kHz
Frame rate                               : 46.875 FPS (1024 SPF)
Compression mode                         : Lossy
Stream size                              : 304 MiB (7%)
Language                                 : English
Default                                  : No
Forced                                   : No

Text
ID                                       : 4
Format                                   : UTF-8
Codec ID                                 : S_TEXT/UTF8
Codec ID/Info                            : UTF-8 Plain Text
Duration                                 : 1 h 34 min
Bit rate                                 : 95 b/s
Count of elements                        : 1970
Stream size                              : 65.7 KiB (0%)
Language                                 : English
Default                                  : No
Forced                                   : No

Скріншоти





Джерело:
подяка mrgalser за постер


Авторський реліз (завантажувати можна без реєстрації)
 Трекер:    Зареєстрований   

Завантажити / скачати серіал українською



відео для новачків



 Зареєстрований:   2020-10-02 21:54
 Розмір:   9.61 GB 
 Оцінка серіалу:   9.2/10 (Голосів: 11)
   
21jumpstreet 
VIP


З нами з: 03.07.12
Востаннє: 26.11.20
Повідомлень: 1459

2020-10-02 21:59  
Політика
tilda4334 
Попереджень: 1
Попереджень: 1 


З нами з: 15.08.14
Востаннє: 26.11.20
Повідомлень: 1180

2020-10-02 22:11  
21jumpstreet
Ого! І тут без неї не обійшлося.

don pedro 
Попереджень: 1
Попереджень: 1 


З нами з: 29.06.11
Востаннє: 26.11.20
Повідомлень: 18180

2020-10-02 22:42  
21jumpstreet
Шо?! В серіалі про Трампа є політика?!

Ukriner 
Частий відвідувач


З нами з: 26.05.11
Востаннє: 26.11.20
Повідомлень: 48

2020-10-02 23:45  
"Міні-серіал освітить ..." Може висвітлює? Бо так видається невдалим перекладом з російської.
Vitt 
Поважний учасник


З нами з: 17.01.11
Востаннє: 26.11.20
Повідомлень: 167

2020-10-03 21:00  
А вуха американських "демократів"(ліваків) тут помітно? :)

Додано через 2 хвилини 22 секунди:

Anonymous написано:
про те, як росіяни посадили в Овальний кабінет Дональда Трампа


Це взагалі ржачка .

tsyka 
Свій


З нами з: 12.02.16
Востаннє: 26.11.20
Повідомлень: 66

2020-10-04 13:50  
який розповів про те, як росіяни посадили в Овальний кабінет Дональда Трампа.---- Щоб його адміністрація ввела санкції проти Північного потоку, логічно )
HY 
Новенький


З нами з: 31.01.12
Востаннє: 11.11.20
Повідомлень: 1

2020-11-11 22:06  
Кого цікавить політика, обов'язково подивіться. Сильно!
mrgalser 
Частий відвідувач


З нами з: 19.12.18
Востаннє: 26.11.20
Повідомлень: 40

2020-11-23 12:38  
Ваш часовий пояс: GMT + 2 Години

Нова тема   Відповісти