Тролі 2: Світове турне / Trolls World Tour (2020) Remux 1080p Ukr/Eng | Sub Eng

Нові коментарі

Нова тема   Відповісти
Автор Повідомлення
Anonymous 







2020-10-02 10:32  
Тролі 2: Світове турне / Trolls World Tour (2020) Remux 1080p Ukr/Eng | Sub Eng


Альтернативні постери










«Надзвичайна. Щаслива. Пригода.»



Жанр: комедія, мультфільм, мюзикл, пригоди, сімейний, фентезі
Країна: США



Кінокомпанія: DreamWorks Animation
Режисер: Волт Дорн, Девід П. Сміт
Актори: Джастін Тімберлейк, Анна Кендрік, Джеймс Корден, Оззі Осборн, Рейчел Блум, Джордж Клінтон, Мері Джей Блайдж, Келлі Кларксон, Рон Фанчес

Сюжет:
Мачок та Пагін відправляються в нову подорож, в якій відкривають, що вони є одним з шести різних племен тролів, кожне з яких любить свою музику: фанк, кантрі, техно, класику, поп і рок. Їхній світ стане набагато більшим і набагато гучнішим.


Тривалість: 01:30:43
Якість: Remux 1080p
Відео:
кодек:
розмір кадру: 1920x1080
бітрейт: ~ 23800 кб/с

Аудіо # 1:
мова: українська
переклад: професійний дубльований
кодек: 5.1
бітрейт: 384 кб/с

Аудіо # 2:
мова: англійська
переклад: оригінал
кодек: 5.1
бітрейт: 448 кб/с

Аудіо # 3:
мова: англійська
переклад: оригінал
кодек: TrueHD + Atmos 7.1
бітрейт: 3173 кб/с

Джерело озвучення:


Субтитри: [Forced]
мова: українська
тип: програмні (м'які)
формат: *.srt

Субтитри:
мова: англійська
тип: програмні (м'які)
формат: *.srt
Info
General
Complete name : Trolls World Tour (2020) Remux 1080p [ukr, eng] [Hurtom].
Format :
Format version : Version 4
File size : 17.7 GiB
Duration : 1 h 30 min
Overall bit rate mode : Variable
Overall bit rate : 27.9 Mb/s
Movie name : Тролі 2: Світове турне / Trolls World Tour (2020)
Encoded date : UTC 2020-10-02 07:10:23
Writing application : v30.1.0 ('Forever And More') 64-bit
Writing library : libebml v1.3.6 + v1.4.9
Cover : Yes
Attachments : cover.jpg

Video
ID : 1
Format : AVC
Format/Info : Advanced Video Codec
Format profile : [email protected]
Format settings : CABAC / 2 Ref Frames
Format settings, CABAC : Yes
Format settings, RefFrames : 2 frames
Codec ID : V_MPEG4/ISO/AVC
Duration : 1 h 30 min
Bit rate mode : Variable
Bit rate : 23.8 Mb/s
Width : 1 920 pixels
Height : 1 080 pixels
Display aspect ratio : 16:9
Frame rate mode : Constant
Frame rate : 23.976 (24000/1001) FPS
Color space : YUV
Chroma subsampling : 4:2:0
Bit depth : 8 bits
Scan type : Progressive
Bits/(Pixel*Frame) : 0.479
Stream size : 15.1 GiB (85%)
Language : English
Default : Yes
Forced : No

Audio #1
ID : 2
Format : AC-3
Format/Info : Audio Coding 3
Commercial name : Dolby Digital
Codec ID : A_AC3
Duration : 1 h 30 min
Bit rate mode : Constant
Bit rate : 384 kb/s
Channel(s) : 6 channels
Channel layout : L R C LFE Ls Rs
Sampling rate : 48.0 kHz
Frame rate : 31.250 FPS (1536 SPF)
Bit depth : 16 bits
Compression mode : Lossy
Stream size : 249 MiB (1%)
Title : 5.1 | 384
Language : Ukrainian
Service kind : Complete Main
Default : Yes
Forced : No

Audio #2
ID : 3
Format : AC-3
Format/Info : Audio Coding 3
Commercial name : Dolby Digital
Codec ID : A_AC3
Duration : 1 h 30 min
Bit rate mode : Constant
Bit rate : 448 kb/s
Channel(s) : 6 channels
Channel layout : L R C LFE Ls Rs
Sampling rate : 48.0 kHz
Frame rate : 31.250 FPS (1536 SPF)
Bit depth : 16 bits
Compression mode : Lossy
Stream size : 291 MiB (2%)
Title : 5.1 | 448
Language : English
Service kind : Complete Main
Default : No
Forced : No

Audio #3
ID : 4
Format : MLP FBA 16-ch
Format/Info : Meridian Lossless Packing FBA with 16-channel presentation
Commercial name : Dolby TrueHD with Dolby Atmos
Codec ID : A_TRUEHD
Duration : 1 h 30 min
Bit rate mode : Variable
Bit rate : 3 173 kb/s
Maximum bit rate : 5 049 kb/s
Channel(s) : 8 channels
Channel layout : L R C LFE Ls Rs Lb Rb
Sampling rate : 48.0 kHz
Frame rate : 1 200.000 FPS (40 SPF)
Compression mode : Lossless
Stream size : 2.01 GiB (11%)
Title : TrueHD 7.1 | 3173
Language : English
Default : No
Forced : No
Number of dynamic objects : 11
Bed channel count : 1 channel
Bed channel configuration : LFE

Text #1
ID : 5
Format : UTF-8
Codec ID : S_TEXT/UTF8
Codec ID/Info : UTF-8 Plain Text
Duration : 38 min 50 s
Bit rate : 0 b/s
Count of elements : 10
Stream size : 205 Bytes (0%)
Title : Forced
Language : Ukrainian
Default : Yes
Forced : No

Text #2
ID : 6
Format : UTF-8
Codec ID : S_TEXT/UTF8
Codec ID/Info : UTF-8 Plain Text
Duration : 1 h 30 min
Bit rate : 93 b/s
Count of elements : 2109
Stream size : 61.5 KiB (0%)
Title : SDH
Language : English
Default : No
Forced : No

Menu
00:00:00.000 : en:Chapter 01
00:05:12.771 : en:Chapter 02
00:08:44.899 : en:Chapter 03
00:12:51.729 : en:Chapter 04
00:18:25.813 : en:Chapter 05
00:22:58.836 : en:Chapter 06
00:27:36.405 : en:Chapter 07
00:30:34.583 : en:Chapter 08
00:34:23.353 : en:Chapter 09
00:38:27.138 : en:Chapter 10
00:41:13.096 : en:Chapter 11
00:46:19.276 : en:Chapter 12
00:50:12.426 : en:Chapter 13
00:54:22.926 : en:Chapter 14
00:59:22.726 : en:Chapter 15
01:03:39.274 : en:Chapter 16
01:06:25.523 : en:Chapter 17
01:10:18.297 : en:Chapter 18
01:15:41.829 : en:Chapter 19
01:21:19.917 : en:Chapter 20
Скріншоти


Джерело:
Особиста оцінка: 7 - моїй подрузі не сподобалося


Золотий реліз (завантажене не впливає на рейтинг)
 Трекер:    Зареєстрований   

Завантажити / скачати мультфільм українською



відео для новачків



 Зареєстрований:   2020-10-02 10:32
 Розмір:   17.66 GB 
 Оцінка мультфільму:   9.6/10 (Голосів: 13)
   
Ваш часовий пояс: GMT + 2 Години

Нова тема   Відповісти