Темно, майже ніч / Ciemno, prawie noc (2019) 720p Pol | sub Ukr/Eng

Нові коментарі

Нова тема   Відповісти
Автор Повідомлення
ivan vyrvyvuho 
VIP


З нами з: 19.08.12
Востаннє: 04.12.20
Повідомлень: 1177

2020-10-01 18:19  
Темно, майже ніч / Ciemno, prawie noc (2019) 720p Pol | sub Ukr/Eng

Темно, майже ніч / Ciemno, prawie noc (2019) 720p Pol | sub Ukr/Eng


Жанр: кримінальний, драма
Країна: Польща



Кінокомпанія: Aurum Film, Odra Film, Centrum Zasobów Cyfrowych
Режисер: Борис Ланкош / Borys Lankosz
Актори: Маґдалена Целецька / Magdalena Cielecka, Марцін Дороцінський / Marcin Dorociński, Аґата Бузек / Agata Buzek, Александра Конечна / Aleksandra Konieczna, Давід Оґроднік / Dawid Ogrodnik, Єжи Треля / Jerzy Trela, Дорота Колак / Dorota Kolak, Пйотр Фрончевський / Piotr Fronczewski, Рома Ґонсьоровська / Roma Gąsiorowska та інші.

Сюжет:
Репортерка Аліція Табор приїжджає до рідного міста Валбжих, щоб провести журналістське розслідування у справі про викрадення дітей. У домашніх стінах на неї навалюються спогади про власне непросте дитинство, яке дивним чином перегукується із сьогоденням.


Тривалість: 01:53:36
Якість:
Відео:
кодек:
розмір кадру: 1280х688
бітрейт: 4888 кб/с

Аудіо:
мова: польська
переклад: оригінал
кодек: 5.1
бітрейт: 640 кб/с

Субтитри:
мова: українська
тип: програмні (м'які)
формат: *.srt
переклад: ivan vyrvyvuho

Субтитри:
мова: англійська
тип: програмні (м'які)
формат: *.srt
Скріншоти









Медіаінфо
General
Unique ID : 138485683215575697191049754411710763498 (0x682F5F56BED472D2A2192892F04351EA)
Complete name : D:\торент\Ciemno, prawie noc (2019) [Pol,SubUkr,Eng]BDRip720p.
Format :
Format version : Version 4
File size : 4.39 GiB
Duration : 1 h 53 min
Overall bit rate : 5 527 kb/s
Movie name : P2P
Encoded date : UTC 2020-10-01 12:36:20
Writing application : v43.0.0 ('The Quartermaster') 64-bit
Writing library : libebml v1.3.10 + v1.5.2

Video
ID : 1
Format : AVC
Format/Info : Advanced Video Codec
Format profile : [email protected]
Format settings : CABAC / 5 Ref Frames
Format settings, CABAC : Yes
Format settings, Reference : 5 frames
Codec ID : V_MPEG4/ISO/AVC
Duration : 1 h 53 min
Bit rate : 4 888 kb/s
Width : 1 280 pixels
Height : 688 pixels
Display aspect ratio : 1.85:1
Frame rate mode : Constant
Frame rate : 24.000 FPS
Color space : YUV
Chroma subsampling : 4:2:0
Bit depth : 8 bits
Scan type : Progressive
Bits/(Pixel*Frame) : 0.231
Stream size : 3.88 GiB (88%)
Writing library : core 158 r2984 3759fcb
Encoding settings : cabac=1 / ref=5 / deblock=1:0:0 / analyse=0x3:0x113 / me=hex / subme=8 / psy=1 / psy_rd=1.00:0.00 / mixed_ref=1 / me_range=16 / chroma_me=1 / trellis=2 / 8x8dct=1 / cqm=0 / deadzone=21,11 / fast_pskip=1 / chroma_qp_offset=-2 / threads=18 / lookahead_threads=3 / sliced_threads=0 / nr=0 / decimate=1 / interlaced=0 / bluray_compat=0 / constrained_intra=0 / bframes=3 / b_pyramid=2 / b_adapt=1 / b_bias=0 / direct=3 / weightb=1 / open_gop=0 / weightp=2 / keyint=250 / keyint_min=24 / scenecut=40 / intra_refresh=0 / rc_lookahead=50 / rc=2pass / mbtree=1 / bitrate=4888 / ratetol=1.0 / qcomp=0.60 / qpmin=0 / qpmax=69 / qpstep=4 / cplxblur=20.0 / qblur=0.5 / vbv_maxrate=62500 / vbv_bufsize=78125 / nal_hrd=none / filler=0 / ip_ratio=1.40 / aq=1:1.00
Default : Yes
Forced : Yes
Color range : Limited
Matrix coefficients : BT.709

Audio
ID : 2
Format : AC-3
Format/Info : Audio Coding 3
Commercial name : Dolby Digital
Codec ID : A_AC3
Duration : 1 h 53 min
Bit rate mode : Constant
Bit rate : 640 kb/s
Channel(s) : 6 channels
Channel layout : L R C LFE Ls Rs
Sampling rate : 48.0 kHz
Frame rate : 31.250 FPS (1536 SPF)
Bit depth : 16 bits
Compression mode : Lossy
Stream size : 520 MiB (12%)
Title : P2P
Language : Polish
Service kind : Complete Main
Default : No
Forced : No

Text #1
ID : 3
Format : UTF-8
Codec ID : S_TEXT/UTF8
Codec ID/Info : UTF-8 Plain Text
Duration : 1 h 48 min
Bit rate : 47 b/s
Count of elements : 938
Stream size : 38.3 KiB (0%)
Title : Ukr
Language : Ukrainian
Default : Yes
Forced : Yes

Text #2
ID : 4
Format : UTF-8
Codec ID : S_TEXT/UTF8
Codec ID/Info : UTF-8 Plain Text
Duration : 1 h 52 min
Bit rate : 27 b/s
Count of elements : 955
Stream size : 22.9 KiB (0%)
Title : Eng
Language : English
Default : No
Forced : No

Джерело:
Особиста оцінка: 7 - "моїй подрузі не сподобалося". Стоп! Яка ще подруга? Хто не знає, існує така система обов'язкового оцінювання релізів (давно застаріла, але традиція це традиція). Черговий фільм Бориса Ланкоша, в якому глядач занурюється в дрібно містечкові страхи, давні жахи історії та різноматні збочення. Мені фільм сподобався своїм колоритом та неспішним темпом. На рейтинг не зважайте, хто любить моторошне кіно, то це саме для вас.


Золотий реліз (завантажене не впливає на рейтинг)
 Трекер:    Зареєстрований   

Завантажити / скачати фільм українською



відео для новачків



 Зареєстрований:   2020-10-01 18:19
 Розмір:   4.39 GB 
 Оцінка фільму:   8.5/10 (Голосів: 2)
   
Ваш часовий пояс: GMT + 2 Години

Нова тема   Відповісти