Слагтерра. Помста Імператора / Slugterra. The Emperor's Revenge (2016) AVC

Нові коментарі

Нова тема   Відповісти
Автор Повідомлення
sergiyko.5 
VIP


З нами з: 25.02.16
Востаннє: 23.10.20
Повідомлень: 3611

2020-10-01 15:05  
Слагтерра. Помста Імператора / Slugterra. The Emperor's Revenge (2016) AVC


Слагтерра. Помста Імператора / Slugterra. The Emperor's Revenge (2016) AVC

Жанр: екшн, фентезі
Країна: Канада
Кінокомпанія: DHX Media
Режисер: Асаш Фіпке

Сюжет:
Імператор повернувся! Підживлюючись люттю і темною магією, він береться за справу, повертаючи Східні печери новою суперзброєю біля нього: Нестримні воїни. Вірні своєму імені, величезних Воїнів, здається, неможливо перемогти. Під час перебігу банди Шейна через Східні печери в пошуках способу перемогти їх, вони стикаються з полчищами Підпорядкованих і люттю Дай-Фу. Предки Джунджі зруйнули схеми імператора протягом століть, але вони ніколи не стикалися з такою загрозою. Тепер вся надія на Банду Шейна перемогти Імператора раз і назавжди.


Тривалість: 01:24:41
Якість:

Відео: кодек: розмір кадру: 704 х 576 бітрейт: 2500 кб/с
Аудіо: мова: українська озвучення: багатоголосе закадрове кодек: 2.0 бітрейт: 128 кб/с
Озвучення:
Про файл:
General
Unique ID : 83400120160659583581263205653003959628 (0x3EBE4764915281D84F0C80E2F180FD4C)
Complete name : D:\Documents\Torrents\Slugterra.The Emperor's Revenge.2016..
Format :
Format version : Version 4
File size : 1.56 GiB
Duration : 1 h 24 min
Overall bit rate mode : Variable
Overall bit rate : 2 630 kb/s
Movie name : Slugterra.The Emperor's Revenge 2015 by sergiyko
Encoded date : UTC 2020-10-01 11:55:46
Writing application : v49.0.0 ('Sick Of Losing Soulmates') 64-bit
Writing library : libebml v1.4.0 + v1.6.1

Video
ID : 1
Format : AVC
Format/Info : Advanced Video Codec
Format profile : [email protected]
Format settings : 1 Ref Frames
Format settings, CABAC : No
Format settings, Reference : 1 frame
Format settings, GOP : M=1, N=5
Codec ID : V_MPEG4/ISO/AVC
Duration : 1 h 24 min
Bit rate mode : Variable
Bit rate : 2 500 kb/s
Width : 704 pixels
Height : 576 pixels
Display aspect ratio : 16:9
Frame rate mode : Constant
Frame rate : 25.000 FPS
Standard : PAL
Color space : YUV
Chroma subsampling : 4:2:0
Bit depth : 8 bits
Scan type : Progressive
Bits/(Pixel*Frame) : 0.247
Stream size : 1.48 GiB (95%)
Title : Slugterra.The Emperor's Revenge.2015
Language : English
Default : Yes
Forced : No

Audio
ID : 2
Format : LC
Format/Info : Advanced Audio Codec Low Complexity
Codec ID : A_AAC-2
Duration : 1 h 24 min
Bit rate : 129 kb/s
Channel(s) : 2 channels
Channel layout : L R
Sampling rate : 44.1 kHz
Frame rate : 43.066 FPS (1024 SPF)
Compression mode : Lossy
Stream size : 78.0 MiB (5%)
Title : MVO | Піксель
Language : Ukrainian
Default : Yes
Forced : No
Скріншоти:


Запис: sergiyko


 Трекер:    Зареєстрований   

Завантажити / скачати мультфільм українською



відео для новачків



 Зареєстрований:   2020-10-01 15:23
 Розмір:   1.56 GB 
 Оцінка мультфільму:   10/10 (Голосів: 4)
   
Ваш часовий пояс: GMT + 2 Години

Нова тема   Відповісти