Слагтерра. Вглиб тіней / Slugterra. Into the Shadows (2016) AVC

Нові коментарі

Нова тема   Відповісти
Автор Повідомлення
sergiyko.5 
VIP


З нами з: 25.02.16
Востаннє: 26.10.20
Повідомлень: 3618

2020-10-01 14:03  
Слагтерра. Вглиб тіней / Slugterra. Into the Shadows (2016) AVC


Слагтерра. Вглиб тіней / Slugterra. Into the Shadows (2016) AVC

Жанр: екшн, фентезі
Країна: Канада
Кінокомпанія: DHX Media
Режисер: Асаш Фіпке

Сюжет:
Коли Банда Шейна повертається до 99 печер із їхньої східної авантюри, між ними та Тіньовим кланом розгорається суперечка, що загрожує зруйнувати важко здобутий мир у Слугтеррі. Елі та Банда мають повні руки, щоб боротися з витівками звичайних бандитів, а також зростаючою ворожістю їхніх колишніх союзників. Отож, коли Тад та його кульок Піпер, котрі щойно прибули з Поверхні, подають руку дивовижним силам Піпера, Елі вітає нового члена команди. Але незабаром цей новачок кидає власну тінь на хаос.




Тривалість: 01:22:02
Якість:

Відео: кодек: розмір кадру: 704 х 576 бітрейт: 2500 кб/с
Аудіо: мова: українська озвучення: багатоголосе закадрове кодек: 2.0 бітрейт: 128 кб/с
Озвучення:
Про файл:
General
Unique ID : 146780604763261585026627070691520117626 (0x6E6CEA8BE10291D071CD06F511E57B7A)
Complete name : D:\Documents\Torrents\Slugterra.Into The Shadows.2016..
Format :
Format version : Version 4
File size : 1.51 GiB
Duration : 1 h 22 min
Overall bit rate mode : Variable
Overall bit rate : 2 631 kb/s
Movie name : Slugterra.Into The Shadows 2016 by sergiyko
Encoded date : UTC 2020-10-01 11:55:40
Writing application : v49.0.0 ('Sick Of Losing Soulmates') 64-bit
Writing library : libebml v1.4.0 + v1.6.1

Video
ID : 1
Format : AVC
Format/Info : Advanced Video Codec
Format profile : [email protected]
Format settings : 1 Ref Frames
Format settings, CABAC : No
Format settings, Reference : 1 frame
Format settings, GOP : M=1, N=5
Codec ID : V_MPEG4/ISO/AVC
Duration : 1 h 22 min
Bit rate mode : Variable
Bit rate : 2 500 kb/s
Width : 704 pixels
Height : 576 pixels
Display aspect ratio : 16:9
Frame rate mode : Constant
Frame rate : 25.000 FPS
Standard : PAL
Color space : YUV
Chroma subsampling : 4:2:0
Bit depth : 8 bits
Scan type : Progressive
Bits/(Pixel*Frame) : 0.247
Stream size : 1.43 GiB (95%)
Title : Slugterra.Into The Shadows.2016
Language : English
Default : Yes
Forced : No

Audio
ID : 2
Format : LC
Format/Info : Advanced Audio Codec Low Complexity
Codec ID : A_AAC-2
Duration : 1 h 22 min
Bit rate : 129 kb/s
Channel(s) : 2 channels
Channel layout : L R
Sampling rate : 44.1 kHz
Frame rate : 43.066 FPS (1024 SPF)
Compression mode : Lossy
Stream size : 75.5 MiB (5%)
Title : MVO | Піксель
Language : Ukrainian
Default : Yes
Forced : No
Скріншоти:


Запис: sergiyko


 Трекер:    Зареєстрований   

Завантажити / скачати мультфільм українською



відео для новачків



 Зареєстрований:   2020-10-01 14:03
 Розмір:   1.51 GB 
 Оцінка мультфільму:   10/10 (Голосів: 2)
   
Ваш часовий пояс: GMT + 2 Години

Нова тема   Відповісти