Доброволець (Сезон 1) (2020) 720p

Нові коментарі

Нова тема   Відповісти
Автор Повідомлення
sergiyko.5 
Забанено
Забанено


З нами з: 25.02.16
Востаннє: 29.10.20
Повідомлень: 3650

2020-10-01 10:29  
Доброволець (Сезон 1) (2020) 720p


Доброволець (Сезон 1) (2020) 720p

Жанр: детектив, бойовик, трилер
Країна: Україна
Кінокомпанія: ТОВ "Студія В.І.К." за підтримки Українського культурного фонду.
Режисер: Ахтем Сеїтаблаєв
Актори: Олег Шульга, Роман Мацюта, Марія Пашкурова-Петренко, Андрій Мостренко, Сергій Дерев'янко, Денис Гранчак, Олександр Пожарський, Олег Волощенко, Всеволод Шекіта, Сергій Деньга, Сергій Дзялик, Петро Ніньовський, Таїсія-Оксана Щурук, Ольга Олексій, Наталія Васько, Роман Ясіновський, Назар Єфросинін, Владислав Романіченко, Сергій Кучера, Микола Боклан, Ігор Тихомиров та інші.

Сюжет:
Доброволець Дмитро повертається додому з фронту до Києва. Його загін було знищено, і він єдиний, хто вижив після обстрілу. Дмитро відчуває власну провину за загибель товаришів і розуміє, що не має права на спокійне життя у місті. Він мусить продовжити бій… У цей час у столиці готується серія масштабних терактів. Майор спецслужб Володимир веде спостереження за злочинним угрупуванням, головою якого є сепаратист Сармат. Спіймати його не просто, оскільки Сармат діє через свого підлеглого Жилинського, з яким Дмитро «познайомився» ще на передовій. Обличчя Жилинського Дмитро запам'ятав надовго, адже товаришів було вбито саме за його наказом. Дмитро та Володимир формують спецзагін з бійців АТО, щоб протистояти терористам.


Тривалість: 1 серія 00:44:37 (цілком серій: 6 з 6)
Якість:

Відео: кодек: розмір кадру: 1280 х 720 бітрейт: 2000 кб/с
Аудіо: мова: українська, російська озвучення: оригінал кодек: 2.0 бітрейт: 128 кб/с
Перелік серій
01 Дмитро повертається із зони ООС
02 Дмитро виходить на слід Жилінського
03 Валентину захопили в заручники!
04 Операція "Обмін"
05 Справжня особа Скіфа
06 Місія врятувати Київ
Про файл:
General
Unique ID : 217233952867235758600690663762685189567 (0xA36DBCCB41E39E0E3F4D542A6D35DDBF)
Complete name : D:\Documents\Torrents\Доброволець S01 720p \Доброволець.S01E01.720p..
Format :
Format version : Version 4
File size : 673 MiB
Duration : 44 min 36 s
Overall bit rate : 2 110 kb/s
Movie name : Доброволець S01 720p by sergiyko
Encoded date : UTC 2020-10-01 08:23:54
Writing application : v49.0.0 ('Sick Of Losing Soulmates') 64-bit
Writing library : libebml v1.4.0 + v1.6.1

Video
ID : 1
Format : AVC
Format/Info : Advanced Video Codec
Format profile : [email protected]
Format settings : CABAC / 5 Ref Frames
Format settings, CABAC : Yes
Format settings, Reference : 5 frames
Codec ID : V_MPEG4/ISO/AVC
Duration : 44 min 36 s
Bit rate : 1 980 kb/s
Width : 1 280 pixels
Height : 720 pixels
Display aspect ratio : 16:9
Frame rate mode : Constant
Frame rate : 25.000 FPS
Color space : YUV
Chroma subsampling : 4:2:0
Bit depth : 8 bits
Scan type : Progressive
Bits/(Pixel*Frame) : 0.086
Stream size : 632 MiB (94%)
Writing library : core 160
Encoding settings : cabac=1 / ref=5 / deblock=1:0:0 / analyse=0x3:0x113 / me=umh / subme=8 / psy=1 / psy_rd=1.00:0.00 / mixed_ref=1 / me_range=16 / chroma_me=1 / trellis=1 / 8x8dct=1 / cqm=0 / deadzone=21,11 / fast_pskip=1 / chroma_qp_offset=-2 / threads=22 / lookahead_threads=3 / sliced_threads=0 / nr=0 / decimate=1 / interlaced=0 / bluray_compat=0 / constrained_intra=0 / bframes=3 / b_pyramid=2 / b_adapt=2 / b_bias=0 / direct=3 / weightb=1 / open_gop=0 / weightp=2 / keyint=250 / keyint_min=25 / scenecut=40 / intra_refresh=0 / rc_lookahead=50 / rc=crf / mbtree=1 / crf=20.0 / qcomp=0.60 / qpmin=5 / qpmax=69 / qpstep=4 / ip_ratio=1.41 / aq=1:1.00
Language : Ukrainian
Default : Yes
Forced : No

Audio
ID : 2
Format : LC
Format/Info : Advanced Audio Codec Low Complexity
Codec ID : A_AAC-2
Duration : 44 min 36 s
Bit rate : 128 kb/s
Channel(s) : 2 channels
Channel layout : L R
Sampling rate : 48.0 kHz
Frame rate : 46.875 FPS (1024 SPF)
Compression mode : Lossy
Delay relative to video : -80 ms
Stream size : 40.8 MiB (6%)
Language : Ukrainian
Default : Yes
Forced : No
Скріншоти:


Запис: sergiyko


Золотий реліз (завантажене не впливає на рейтинг)
 Трекер:    Зареєстрований   

Завантажити / скачати український серіал



відео для новачків



 Зареєстрований:   2020-10-03 10:27
 Розмір:   4.11 GB 
 Оцінка серіалу:   9.4/10 (Голосів: 39)
   
Estranded 
VIP


З нами з: 09.02.14
Востаннє: 01.12.20
Повідомлень: 1527

2020-10-01 12:39  
багато московської?
sergiyko.5 
Забанено
Забанено


З нами з: 25.02.16
Востаннє: 29.10.20
Повідомлень: 3650

2020-10-01 12:48  
Вибачте, не дивився.
Є інше зауваження, у версії запису з сайту звук має призвук як динамік у відро помістили. У версії 1080p запису з ТБ такого не чутно.

sergiyko.5 
Забанено
Забанено


З нами з: 25.02.16
Востаннє: 29.10.20
Повідомлень: 3650

2020-10-01 23:00  
Додав 3-4 серії. Оновіть торент-файл.
dreamovich 
Свій


З нами з: 04.03.09
Востаннє: 29.11.20
Повідомлень: 73

2020-10-03 00:04  
Estranded
Небагато, но трошки є. Куратори ФСБ нею розмовляють. У більшості епізодів навіть сєпари говорять українською.

sergiyko.5 
Забанено
Забанено


З нами з: 25.02.16
Востаннє: 29.10.20
Повідомлень: 3650

2020-10-03 10:28  
Додав 5-6 серії. Оновіть торент-файл.
upiterian 
Свій


З нами з: 07.04.08
Востаннє: 01.12.20
Повідомлень: 95

2020-10-04 23:21  
Ще одна крута прем‘єра осені - серіал «Доброволець» від Ахтема Сеітаблаєва. Тут чіткий розподіл на своїх та кацапів, на тих, хто за так звані "л\днр" і тих, хто воює за вільну, незалежну, суверенну Україну.
Це якісний україномовний продукт про наших людей, про нашу столицю та наш Донбас. Приклад того, як мають знімати в незалежній країні.
В головній ролі вже відомий Олег Шульга з «Червоного» та «Позивного Бандерас». Якщо ви дивилися ці фільми, то можете на 100% дивитися «Добровольця». Якщо не дивилися - перегляньте, бо це знімали свої, що в темі.
Якби такий та подібний культурний продукт робили в Україні всі 29 років Незалежності, ми були б нині іншою країною, з іншими цінностями і багато наших співвітчизників, що досі живуть в проросійському порядку денному, мислили б інакше.
Після «І будуть люди» це ще один якісний український кіносеріал сезону осені 2020. Рекомендую!

wolesj 
VIP


З нами з: 15.07.12
Востаннє: 01.12.20
Повідомлень: 955

2020-10-11 16:28  
Ваш часовий пояс: GMT + 2 Години

Нова тема   Відповісти