Вбивство священного оленя / The Killing of a Sacred Deer (2017) 1080p Ukr/Eng | Sub Eng

Нові коментарі

Нова тема   Відповісти
Автор Повідомлення
sergiyko.5 
Забанено
Забанено


З нами з: 25.02.16
Востаннє: 29.10.20
Повідомлень: 3650

2020-09-30 19:41  
Вбивство священного оленя / The Killing of a Sacred Deer (2017) 1080p Ukr/Eng | Sub Eng


Вбивство священного оленя / The Killing of a Sacred Deer (2017) 1080p Ukr/Eng | Sub Eng

Жанр: жахи, трилер, драма, детектив
Країна: Великобританія, Ірландія, США
Кінокомпанія: Element Pictures, A24, Film4
Режисер: Йоргос Лантімос
Актори: Колін Фаррелл, Ніколь Кідман, Алісія Сільверстоун, Реффі Кессіді, Білл Кемп, Баррі Кеоган, Аніта Фармер Бергман, Санні Сулджик, Аніта Фармер Бергман, Лея Гаттон Бейсмор

Сюжет:
Успішний харизматичний кардіохірург Стівен (Колін Фаррелл) живе спокійним сімейним життям, аж доки не починає спілкуватися з підлітком Мартіном, батька якого невдало оперував Стівен. Проте, з часом дії хлопчика починають набувати дивного та лякаючого характеру, ідеальне життя Стівена стає нічним кошмаром у якому йому доведеться зробити дуже важкий вибір — пожертвувати кимось із сім'ї для відновлення рівноваги та збереження більшості членів сім'ї.




Тривалість: 02:01:02
Якість:

Відео: кодек: розмір кадру: 1920 х 1036 бітрейт: 13000 кб/с
Аудіо 1: мова: українська озвучення: багатоголосе закадрове кодек: 2.0 бітрейт: 192 кб/с
Озвучення: Oboz TV
Аудіо 2: мова: англійська озвучення: оригінал кодек: 5.1 бітрейт: 1509 кб/с
Субтитри: мова: англійська тип: програмні (м'які) формат: *.srt
Про файл:
General
Unique ID : 85719676268339908986229421136374078761 (0x407D0256A924A2A95B11797943331D29)
Complete name : D:\Documents\Torrents\FILMS\The Killing of a Sacred Deer.2017.1080p..
Format :
Format version : Version 4
File size : 12.4 GiB
Duration : 2 h 1 min
Overall bit rate : 14.7 Mb/s
Movie name : The Killing of a Sacred Deer 2017 by sergiyko
Encoded date : UTC 2020-10-05 19:11:11
Writing application : v49.0.0 ('Sick Of Losing Soulmates') 64-bit
Writing library : libebml v1.4.0 + v1.6.1

Video
ID : 1
Format : AVC
Format/Info : Advanced Video Codec
Format profile : [email protected]
Format settings : CABAC / 4 Ref Frames
Format settings, CABAC : Yes
Format settings, Reference : 4 frames
Codec ID : V_MPEG4/ISO/AVC
Duration : 2 h 1 min
Bit rate : 13.0 Mb/s
Width : 1 920 pixels
Height : 1 036 pixels
Display aspect ratio : 1.85:1
Frame rate mode : Constant
Frame rate : 23.976 (24000/1001) FPS
Color space : YUV
Chroma subsampling : 4:2:0
Bit depth : 8 bits
Scan type : Progressive
Bits/(Pixel*Frame) : 0.273
Stream size : 11.0 GiB (88%)
Title : The Killing of a Sacred Deer 2017
Writing library : core 146 r2538 121396c
Encoding settings : cabac=1 / ref=4 / deblock=1:-2:-2 / analyse=0x3:0x133 / me=umh / subme=11 / psy=1 / psy_rd=1.00:0.00 / mixed_ref=1 / me_range=32 / chroma_me=1 / trellis=2 / 8x8dct=1 / cqm=0 / deadzone=21,11 / fast_pskip=0 / chroma_qp_offset=-2 / threads=12 / lookahead_threads=2 / sliced_threads=0 / nr=0 / decimate=0 / interlaced=0 / bluray_compat=0 / constrained_intra=0 / bframes=14 / b_pyramid=2 / b_adapt=2 / b_bias=0 / direct=3 / weightb=1 / open_gop=0 / weightp=2 / keyint=240 / keyint_min=23 / scenecut=40 / intra_refresh=0 / rc=2pass / mbtree=0 / bitrate=13000 / ratetol=1.0 / qcomp=0.60 / qpmin=0 / qpmax=69 / qpstep=4 / cplxblur=20.0 / qblur=0.5 / ip_ratio=1.40 / pb_ratio=1.30 / aq=2:0.80
Language : English
Default : Yes
Forced : No

Audio #1
ID : 2
Format : AC-3
Format/Info : Audio Coding 3
Commercial name : Dolby Digital
Codec ID : A_AC3
Duration : 2 h 1 min
Bit rate mode : Constant
Bit rate : 192 kb/s
Channel(s) : 2 channels
Channel layout : L R
Sampling rate : 48.0 kHz
Frame rate : 31.250 FPS (1536 SPF)
Compression mode : Lossy
Stream size : 166 MiB (1%)
Title : MVO | Oboz TV
Language : Ukrainian
Service kind : Complete Main
Default : Yes
Forced : Yes

Audio #2
ID : 3
Format :
Format/Info : Digital Theater Systems
Codec ID : A_DTS
Duration : 2 h 1 min
Bit rate mode : Constant
Bit rate : 1 509 kb/s
Channel(s) : 6 channels
Channel layout : C L R Ls Rs LFE
Sampling rate : 48.0 kHz
Frame rate : 93.750 FPS (512 SPF)
Bit depth : 24 bits
Compression mode : Lossy
Stream size : 1.28 GiB (10%)
Title : Original
Language : English
Default : No
Forced : No

Text #1
ID : 4
Format : UTF-8
Codec ID : S_TEXT/UTF8
Codec ID/Info : UTF-8 Plain Text
Duration : 1 h 46 min
Bit rate : 64 b/s
Count of elements : 1222
Stream size : 50.3 KiB (0%)
Language : English
Default : No
Forced : No

Text #2
ID : 5
Format : UTF-8
Codec ID : S_TEXT/UTF8
Codec ID/Info : UTF-8 Plain Text
Duration : 1 h 54 min
Bit rate : 67 b/s
Count of elements : 1417
Stream size : 56.6 KiB (0%)
Title : SDH
Language : English
Default : No
Forced : No

Text #3
ID : 6
Format : UTF-8
Codec ID : S_TEXT/UTF8
Codec ID/Info : UTF-8 Plain Text
Duration : 1 h 54 min
Bit rate : 83 b/s
Count of elements : 1417
Stream size : 70.3 KiB (0%)
Title : SDH-Colored
Language : English
Default : No
Forced : No

Menu
00:00:00.000 : en:00:00:00.000
00:07:03.131 : en:00:07:03.131
00:14:38.794 : en:00:14:38.794
00:22:29.807 : en:00:22:29.807
00:31:16.917 : en:00:31:16.917
00:38:06.367 : en:00:38:06.367
00:45:53.209 : en:00:45:53.209
00:51:18.492 : en:00:51:18.492
01:00:25.914 : en:01:00:25.914
01:07:06.522 : en:01:07:06.522
01:16:36.884 : en:01:16:36.884
01:25:07.769 : en:01:25:07.769
01:30:27.422 : en:01:30:27.422
01:36:43.297 : en:01:36:43.297
01:44:07.950 : en:01:44:07.950
01:53:50.532 : en:01:53:50.532
Скріншоти:


Запис/синхронізація: sergiyko


 Трекер:    Зареєстрований   

Завантажити / скачати фільм українською



відео для новачків



 Зареєстрований:   2020-10-05 22:55
 Розмір:   12.42 GB 
 Оцінка фільму:   7.8/10 (Голосів: 9)
   
bot 
робот


З нами з: 30.09.07
Востаннє: 26.05.05
Повідомлень: 26989

2020-09-30 19:43  
Тему перенесено з Фільми в HD до форуму Анонси релізів


sergiyko.5

Gvyntyk 
Свій


З нами з: 15.02.09
Востаннє: 24.01.21
Повідомлень: 117

2020-10-01 08:40  
Переклад буде той же, що і в кінотеатрах?
bot 
робот


З нами з: 30.09.07
Востаннє: 26.05.05
Повідомлень: 26989

2020-10-05 21:22  
Тему перенесено з Анонси релізів до форуму Фільми в HD


sergiyko.5

antik_2008 
Релізер і модератор відео


З нами з: 20.10.08
Востаннє: 27.01.21
Повідомлень: 4658

2020-10-05 22:02  
sergiyko.5 Дякую!

Ремукс 1080p чекати?

sergiyko.5 
Забанено
Забанено


З нами з: 25.02.16
Востаннє: 29.10.20
Повідомлень: 3650

2020-10-05 22:55  
antik_2008 написано:
Ремукс 1080p чекати?

Ні

poolvetrum 
VIP


З нами з: 01.06.14
Востаннє: 27.01.21
Повідомлень: 295

2020-10-26 02:05  
Фільм вартий уваги. Головне витримати початок (бо він направду доволі нудний), а далі сюжет поглинає повністю. 7,5/10
Svs12345 
Новенький


З нами з: 25.12.19
Востаннє: 17.01.21
Повідомлень: 8

2021-01-03 22:06  
Нудятина, не додивився
Ваш часовий пояс: GMT + 2 Години

Нова тема   Відповісти