Утопія (Сезон 1) / Utopia (Season 1) (2020) 1080p Ukr/Eng | sub Multi

Нові коментарі

Нова тема   Відповісти
Автор Повідомлення
Anonymous 







2020-09-30 17:11  
Утопія (Сезон 1) / Utopia (Season 1) (2020) 1080p Ukr/Eng | sub Multi



Жанр: екшн, драма, містика
Країна: США



Кінокомпанія: Amazon Studios, Endemol Shine North America, Endemol Shine UK
Режисер: Тобі Хейнс, Сюзанна Фогель, Джей Ді Ділард
Актори: Джон К'юсак, Ешлі ЛаТроп, Ден Бірд, Десмін Боргес, Крістофер Денам та ін.

Сюжет:
У центрі сюжету нової Утопії - група фанатів графічного роману Експерименти утопії, який передбачив головні катастрофи 20 століття. Одного разу вони знаходять продовження коміксу, але тут же стикаються з незнайомцями, які полюють на книгу - все так само, як і в оригінальному серіалі, але зі значними відмінностями.

Команда виявляє, що імпозантний мільярдер прагне не винайти ліки, а втягнути світ в хаос, деградацію і канібалізм. Коли починається спалах інфекції, вони знаходять опис в коміксі, і вирішують діяти - врятувати людство, позбутися від убивць-переслідувачів і вижити.


Тривалість: 1 серія: ~ 55 хв. (цілком серій: 8)
Перелік серій
01 - Life Begins
02 - Just a Fanboy
03 - Tuesday's Child
04 - not slow not bad
05 - Order 2472
06 - Respect Your Purpose
07 - Talking Hurts
08 - Stay Alive, Jessica Hyde
Якість:
Відео:
кодек:
розмір кадру: 1920 x 800
бітрейт: 8516 кб/с

Аудіо # 1:
мова: українська
переклад: багатоголосий закадровий
кодек: 5.1
бітрейт: 384 кб/с

Аудіо # 2:
мова: англійська
переклад: оригінал
кодек: 5.1
бітрейт: 640 кб/с

Джерело озвучення:
DniproFilm

Субтитри:
мова: англійська [SDH], арабська, данська, німецька, іспанська (лат.), іспанська, фінська, філіппінська, французька, гебрейська, хінді, індонезійська, італійська, японська, корейська, малайська, норвезька, нідерландська, польська, португальська (браз.), португальська, шведська, тамільська, телугу, тайська, турецька, китайська (спрощ.), китайська (трад.)
тип: програмні (м'які)
формат: *.srt
Info
Код:
General
Unique ID                                : 333885881076244270145586353739006821623 (0xFB3014E62E5F16267855B12BA69D44F7)
Complete name                            : Utopia S01E01 (2020) 1080p [Ukr_Eng] [Hurtom].
Format                                   :
Format version                           : Version 4
File size                                : 3.36 GiB
Duration                                 : 50 min 24 s
Overall bit rate                         : 9 546 kb/s
Movie name                               : Утопія (Сезон 1, серія 1) (2020)
Encoded date                             : UTC 2020-09-30 10:48:33
Writing application                      : v50.0.0 ('Awakenings') 64-bit
Writing library                          : libebml v1.4.0 + v1.6.2
Cover                                    : Yes
Attachments                              : cover.jpg

Video
ID                                       : 1
Format                                   : AVC
Format/Info                              : Advanced Video Codec
Format profile                           : [email protected]
Format settings                          : CABAC / 4 Ref Frames
Format settings, CABAC                   : Yes
Format settings, Reference frames        : 4 frames
Codec ID                                 : V_MPEG4/ISO/AVC
Duration                                 : 50 min 23 s
Bit rate mode                            : Constant
Bit rate                                 : 8 516 kb/s
Nominal bit rate                         : 10 000 kb/s
Width                                    : 1 920 pixels
Height                                   : 800 pixels
Display aspect ratio                     : 2.40:1
Frame rate mode                          : Constant
Frame rate                               : 23.976 (24000/1001) FPS
Color space                              : YUV
Chroma subsampling                       : 4:2:0
Bit depth                                : 8 bits
Scan type                                : Progressive
Bits/(Pixel*Frame)                       : 0.231
Stream size                              : 3.00 GiB (89%)
Default                                  : Yes
Forced                                   : No
Color range                              : Limited
Color primaries                          : BT.709
Transfer characteristics                 : BT.709
Matrix coefficients                      : BT.709

Audio #1
ID                                       : 2
Format                                   : AC-3
Format/Info                              : Audio Coding 3
Commercial name                          : Dolby Digital
Codec ID                                 : A_AC3
Duration                                 : 50 min 24 s
Bit rate mode                            : Constant
Bit rate                                 : 384 kb/s
Channel(s)                               : 6 channels
Channel layout                           : L R C LFE Ls Rs
Sampling rate                            : 48.0 kHz
Frame rate                               : 31.250 FPS (1536 SPF)
Compression mode                         : Lossy
Stream size                              : 138 MiB (4%)
Language                                 : Ukrainian
Service kind                             : Complete Main
Default                                  : Yes
Forced                                   : Yes

Audio #2
ID                                       : 3
Format                                   : E-AC-3
Format/Info                              : Enhanced AC-3
Commercial name                          : Dolby Digital Plus
Codec ID                                 : A_EAC3
Duration                                 : 50 min 24 s
Bit rate mode                            : Constant
Bit rate                                 : 640 kb/s
Channel(s)                               : 6 channels
Channel layout                           : L R C LFE Ls Rs
Sampling rate                            : 48.0 kHz
Frame rate                               : 31.250 FPS (1536 SPF)
Compression mode                         : Lossy
Stream size                              : 231 MiB (7%)
Language                                 : English
Service kind                             : Complete Main
Default                                  : No
Forced                                   : No

Text #1
ID                                       : 4
Format                                   : UTF-8
Codec ID                                 : S_TEXT/UTF8
Codec ID/Info                            : UTF-8 Plain Text
Duration                                 : 48 min 59 s
Bit rate                                 : 65 b/s
Count of elements                        : 795
Stream size                              : 23.6 KiB (0%)
Title                                    : SDH
Language                                 : English
Default                                  : No
Forced                                   : No

Text #2
ID                                       : 5
Format                                   : UTF-8
Codec ID                                 : S_TEXT/UTF8
Codec ID/Info                            : UTF-8 Plain Text
Duration                                 : 49 min 26 s
Bit rate                                 : 86 b/s
Count of elements                        : 578
Stream size                              : 31.3 KiB (0%)
Language                                 : Arabic
Default                                  : No
Forced                                   : No

Text #3
ID                                       : 6
Format                                   : UTF-8
Codec ID                                 : S_TEXT/UTF8
Codec ID/Info                            : UTF-8 Plain Text
Duration                                 : 48 min 55 s
Bit rate                                 : 49 b/s
Count of elements                        : 572
Stream size                              : 17.7 KiB (0%)
Language                                 : Danish
Default                                  : No
Forced                                   : No

Text #4
ID                                       : 7
Format                                   : UTF-8
Codec ID                                 : S_TEXT/UTF8
Codec ID/Info                            : UTF-8 Plain Text
Duration                                 : 48 min 54 s
Bit rate                                 : 48 b/s
Count of elements                        : 506
Stream size                              : 17.3 KiB (0%)
Language                                 : German
Default                                  : No
Forced                                   : No

Text #5
ID                                       : 8
Format                                   : UTF-8
Codec ID                                 : S_TEXT/UTF8
Codec ID/Info                            : UTF-8 Plain Text
Duration                                 : 48 min 55 s
Bit rate                                 : 48 b/s
Count of elements                        : 574
Stream size                              : 17.3 KiB (0%)
Title                                    : Latinoamérica
Language                                 : Spanish
Default                                  : No
Forced                                   : No

Text #6
ID                                       : 9
Format                                   : UTF-8
Codec ID                                 : S_TEXT/UTF8
Codec ID/Info                            : UTF-8 Plain Text
Duration                                 : 48 min 55 s
Bit rate                                 : 46 b/s
Count of elements                        : 570
Stream size                              : 16.6 KiB (0%)
Title                                    : España
Language                                 : Spanish
Default                                  : No
Forced                                   : No

Text #7
ID                                       : 10
Format                                   : UTF-8
Codec ID                                 : S_TEXT/UTF8
Codec ID/Info                            : UTF-8 Plain Text
Duration                                 : 48 min 55 s
Bit rate                                 : 48 b/s
Count of elements                        : 571
Stream size                              : 17.4 KiB (0%)
Language                                 : Finnish
Default                                  : No
Forced                                   : No

Text #8
ID                                       : 11
Format                                   : UTF-8
Codec ID                                 : S_TEXT/UTF8
Codec ID/Info                            : UTF-8 Plain Text
Duration                                 : 48 min 55 s
Bit rate                                 : 45 b/s
Count of elements                        : 530
Stream size                              : 16.4 KiB (0%)
Language                                 : fil
Default                                  : No
Forced                                   : No

Text #9
ID                                       : 12
Format                                   : UTF-8
Codec ID                                 : S_TEXT/UTF8
Codec ID/Info                            : UTF-8 Plain Text
Duration                                 : 48 min 55 s
Bit rate                                 : 49 b/s
Count of elements                        : 566
Stream size                              : 17.7 KiB (0%)
Language                                 : French
Default                                  : No
Forced                                   : No

Text #10
ID                                       : 13
Format                                   : UTF-8
Codec ID                                 : S_TEXT/UTF8
Codec ID/Info                            : UTF-8 Plain Text
Duration                                 : 49 min 26 s
Bit rate                                 : 72 b/s
Count of elements                        : 581
Stream size                              : 26.3 KiB (0%)
Language                                 : Hebrew
Default                                  : No
Forced                                   : No

Text #11
ID                                       : 14
Format                                   : UTF-8
Codec ID                                 : S_TEXT/UTF8
Codec ID/Info                            : UTF-8 Plain Text
Duration                                 : 49 min 26 s
Bit rate                                 : 118 b/s
Count of elements                        : 581
Stream size                              : 42.8 KiB (0%)
Language                                 : Hindi
Default                                  : No
Forced                                   : No

Text #12
ID                                       : 15
Format                                   : UTF-8
Codec ID                                 : S_TEXT/UTF8
Codec ID/Info                            : UTF-8 Plain Text
Duration                                 : 48 min 55 s
Bit rate                                 : 44 b/s
Count of elements                        : 573
Stream size                              : 16.0 KiB (0%)
Language                                 : Indonesian
Default                                  : No
Forced                                   : No

Text #13
ID                                       : 16
Format                                   : UTF-8
Codec ID                                 : S_TEXT/UTF8
Codec ID/Info                            : UTF-8 Plain Text
Duration                                 : 48 min 55 s
Bit rate                                 : 48 b/s
Count of elements                        : 568
Stream size                              : 17.2 KiB (0%)
Language                                 : Italian
Default                                  : No
Forced                                   : No

Text #14
ID                                       : 17
Format                                   : UTF-8
Codec ID                                 : S_TEXT/UTF8
Codec ID/Info                            : UTF-8 Plain Text
Duration                                 : 49 min 26 s
Bit rate                                 : 41 b/s
Count of elements                        : 549
Stream size                              : 15.1 KiB (0%)
Language                                 : Japanese
Default                                  : No
Forced                                   : No

Text #15
ID                                       : 18
Format                                   : UTF-8
Codec ID                                 : S_TEXT/UTF8
Codec ID/Info                            : UTF-8 Plain Text
Duration                                 : 49 min 26 s
Bit rate                                 : 55 b/s
Count of elements                        : 580
Stream size                              : 20.3 KiB (0%)
Language                                 : Korean
Default                                  : No
Forced                                   : No

Text #16
ID                                       : 19
Format                                   : UTF-8
Codec ID                                 : S_TEXT/UTF8
Codec ID/Info                            : UTF-8 Plain Text
Duration                                 : 48 min 55 s
Bit rate                                 : 49 b/s
Count of elements                        : 574
Stream size                              : 17.6 KiB (0%)
Language                                 : Malay
Default                                  : No
Forced                                   : No

Text #17
ID                                       : 20
Format                                   : UTF-8
Codec ID                                 : S_TEXT/UTF8
Codec ID/Info                            : UTF-8 Plain Text
Duration                                 : 48 min 55 s
Bit rate                                 : 44 b/s
Count of elements                        : 569
Stream size                              : 16.0 KiB (0%)
Language                                 : Norwegian Bokmal
Default                                  : No
Forced                                   : No

Text #18
ID                                       : 21
Format                                   : UTF-8
Codec ID                                 : S_TEXT/UTF8
Codec ID/Info                            : UTF-8 Plain Text
Duration                                 : 48 min 55 s
Bit rate                                 : 46 b/s
Count of elements                        : 567
Stream size                              : 16.7 KiB (0%)
Language                                 : Dutch
Default                                  : No
Forced                                   : No

Text #19
ID                                       : 22
Format                                   : UTF-8
Codec ID                                 : S_TEXT/UTF8
Codec ID/Info                            : UTF-8 Plain Text
Duration                                 : 48 min 55 s
Bit rate                                 : 46 b/s
Count of elements                        : 573
Stream size                              : 16.8 KiB (0%)
Language                                 : Polish
Default                                  : No
Forced                                   : No

Text #20
ID                                       : 23
Format                                   : UTF-8
Codec ID                                 : S_TEXT/UTF8
Codec ID/Info                            : UTF-8 Plain Text
Duration                                 : 48 min 55 s
Bit rate                                 : 47 b/s
Count of elements                        : 571
Stream size                              : 17.1 KiB (0%)
Title                                    : Brasil
Language                                 : Portuguese
Default                                  : No
Forced                                   : No

Text #21
ID                                       : 24
Format                                   : UTF-8
Codec ID                                 : S_TEXT/UTF8
Codec ID/Info                            : UTF-8 Plain Text
Duration                                 : 48 min 55 s
Bit rate                                 : 49 b/s
Count of elements                        : 567
Stream size                              : 17.7 KiB (0%)
Title                                    : Portugal
Language                                 : Portuguese
Default                                  : No
Forced                                   : No

Text #22
ID                                       : 25
Format                                   : UTF-8
Codec ID                                 : S_TEXT/UTF8
Codec ID/Info                            : UTF-8 Plain Text
Duration                                 : 48 min 55 s
Bit rate                                 : 44 b/s
Count of elements                        : 570
Stream size                              : 15.9 KiB (0%)
Language                                 : Swedish
Default                                  : No
Forced                                   : No

Text #23
ID                                       : 26
Format                                   : UTF-8
Codec ID                                 : S_TEXT/UTF8
Codec ID/Info                            : UTF-8 Plain Text
Duration                                 : 49 min 26 s
Bit rate                                 : 124 b/s
Count of elements                        : 581
Stream size                              : 45.2 KiB (0%)
Language                                 : Tamil
Default                                  : No
Forced                                   : No

Text #24
ID                                       : 27
Format                                   : UTF-8
Codec ID                                 : S_TEXT/UTF8
Codec ID/Info                            : UTF-8 Plain Text
Duration                                 : 49 min 26 s
Bit rate                                 : 126 b/s
Count of elements                        : 581
Stream size                              : 45.8 KiB (0%)
Language                                 : Telugu
Default                                  : No
Forced                                   : No

Text #25
ID                                       : 28
Format                                   : UTF-8
Codec ID                                 : S_TEXT/UTF8
Codec ID/Info                            : UTF-8 Plain Text
Duration                                 : 49 min 26 s
Bit rate                                 : 126 b/s
Count of elements                        : 582
Stream size                              : 45.7 KiB (0%)
Language                                 : Thai
Default                                  : No
Forced                                   : No

Text #26
ID                                       : 29
Format                                   : UTF-8
Codec ID                                 : S_TEXT/UTF8
Codec ID/Info                            : UTF-8 Plain Text
Duration                                 : 49 min 26 s
Bit rate                                 : 48 b/s
Count of elements                        : 574
Stream size                              : 17.4 KiB (0%)
Language                                 : Turkish
Default                                  : No
Forced                                   : No

Text #27
ID                                       : 30
Format                                   : UTF-8
Codec ID                                 : S_TEXT/UTF8
Codec ID/Info                            : UTF-8 Plain Text
Duration                                 : 49 min 26 s
Bit rate                                 : 48 b/s
Count of elements                        : 581
Stream size                              : 17.5 KiB (0%)
Title                                    : 简体
Language                                 : Chinese
Default                                  : No
Forced                                   : No

Text #28
ID                                       : 31
Format                                   : UTF-8
Codec ID                                 : S_TEXT/UTF8
Codec ID/Info                            : UTF-8 Plain Text
Duration                                 : 49 min 26 s
Bit rate                                 : 45 b/s
Count of elements                        : 581
Stream size                              : 16.5 KiB (0%)
Title                                    : 繁體
Language                                 : Chinese
Default                                  : No
Forced                                   : No

Menu
00:00:00.000                             : en:Amazon original
00:00:05.000                             : en:Disclaimer
00:00:13.000                             : en:Opening credits
00:01:02.000                             : en:Inheriting a house
00:03:17.000                             : en:Group text
00:05:55.000                             : en:Wilson's home life
00:08:42.000                             : en:Becky has a fit
00:09:44.000                             : en:Save the world girl
00:10:30.000                             : en:Grant's reality
00:11:14.000                             : en:Arrival at fringe-con
00:12:28.000                             : en:Utopia party
00:12:45.000                             : en:Seeing the manuscript
00:14:37.000                             : en:Waiting for a pick up
00:15:50.000                             : en:Interviewing bidders
00:17:08.000                             : en:Becky and ian view the manuscript
00:19:12.000                             : en:Ian meets becky
00:21:07.000                             : en:Competitive bidding
00:21:44.000                             : en:A good time at the bar
00:23:03.000                             : en:Time to start doing something
00:25:48.000                             : en:Feeling a connection
00:27:37.000                             : en:A large bid
00:28:24.000                             : en:Group meetup
00:29:41.000                             : en:Grant arrives
00:31:38.000                             : en:New guests
00:32:06.000                             : en:Finally meeting up
00:33:38.000                             : en:Unexpected visitors
00:37:42.000                             : en:In the penthouse
00:42:03.000                             : en:Seeking out witnesses
00:46:01.000                             : en:Bidding closes
00:46:37.000                             : en:Stay alive jessica hyde
00:48:35.000                             : en:End credits

Скріншоти


Джерело:
Подяка за постер пану mrgalser


Авторський реліз (завантажувати можна без реєстрації)
 Трекер:    Зареєстрований   

Завантажити / скачати серіал українською



відео для новачків



 Зареєстрований:   2020-09-30 17:11
 Розмір:   25.35 GB 
 Оцінка серіалу:   8.6/10 (Голосів: 9)
   
leicheman 
Відео Гуртом - фільмокрай
Відео Гуртом - фільмокрай


З нами з: 03.07.14
Востаннє: 01.12.20
Повідомлень: 5697

2020-09-30 19:08  
Якщо ви дивилися і полюбили Британський оригінал то у жодному разі не вмикайте цей римейк. Я вас попередив)))

моя оцінка 3/10

mrgalser 
Частий відвідувач


З нами з: 19.12.18
Востаннє: 01.12.20
Повідомлень: 40

2020-09-30 19:45  
Mizamax 
Новенький


З нами з: 07.09.20
Востаннє: 29.11.20
Повідомлень: 1

2020-09-30 23:50  
Нащо вони пишуть що це Оригінальнний Амазон?
Це ж ремейк.

don pedro 
Попереджень: 1
Попереджень: 1 


З нами з: 29.06.11
Востаннє: 01.12.20
Повідомлень: 18214

2020-10-01 00:32  
А менший розмір буде?
Gotmog1 
Свій


З нами з: 05.01.14
Востаннє: 30.11.20
Повідомлень: 77

2020-10-01 21:34  
leicheman
Згоден.

silent g 
Новенький


З нами з: 14.08.11
Востаннє: 23.11.20
Повідомлень: 4

2020-10-29 23:29  
І не думав що таке напишу, але таки британський оригінал кращий, leicheman правий на 100%
Єдине чим новий варіант кращий - це більш правдоподібною жорстокістю Джесіки. Все решта краще в оригіналі.

Персонально мені найбільше зіпсуло враження те, що "наукова" складова, яка і в британському серіалі кульгала на обидві ноги, в американському просто випала у вікно і розбилась на пляцок ... Sad (1)

leicheman 
Відео Гуртом - фільмокрай
Відео Гуртом - фільмокрай


З нами з: 03.07.14
Востаннє: 01.12.20
Повідомлень: 5697

2020-11-28 09:18  
Як і очікувалося. Серіал закрили після першого сезону)))
Ваш часовий пояс: GMT + 2 Години

Нова тема   Відповісти