Врятувати панду / Mr. Zoo: The Missing VIP (2020) 1080p Kor | sub Ukr

Нові коментарі

Нова тема   Відповісти
Автор Повідомлення
killer2015 
Поважний учасник


З нами з: 30.01.15
Востаннє: 04.12.20
Повідомлень: 201

2020-09-30 13:38  
Врятувати панду / Mr. Zoo: The Missing VIP (2020) 1080p Kor | sub Ukr



Жанр: бойовик, комедія, фентезі
Країна: Південна Корея



Режисер: Тхе-юн Кім
Актори: Чи Сон-хв, Інгу, щін Ха-Гюн, Кім Со-Хен, Пе Джон-нам, Каль Со-он, Девід Лі Макінніс, Ю Ін-на, Кім Су-ми, чи Сон-Гюн

Сюжет:
Містер Джу - кращий агент національної розвідувальної служби. Він відправляється на спецзавдання - йому належить дбати про безпеку найважливішої панди в світі, але трапляється нещасний випадок, його підопічний зникає, а сам Джу раптом починає розуміти мову тварин. Директор секретної служби Мін і агент Мансика підозрюють, що Джу, який почав вести себе дуже дивно, сам винен в ситуації і його відправляють на відпочинок. Містер Джу відпочивати не має наміру і сам відправляється на пошуки зниклого. Йому допомагає поліцейський пес Алі. У самому серці міста розгортається незвичайна історія про взаємодію людини і тварин, які нарешті починають відмінно один одного розуміти.


Тривалість: 01:53:48
Якість: 1080p
Відео:
кодек:
розмір кадру: 1920x1080
бітрейт: 3830 кб/с

Аудіо:
мова: корейська
переклад: оригінал
кодек: 5.1
бітрейт: 640 кб/с

Субтитри:
мова: українська (редагований переклад Killer2015)
тип: програмні (м'які)
формат: *.srt
Info
General
Unique ID : 337568252551455726220616147573011799671 (0xFDF547D481804B803497A2C4B5465E77)
Complete name : G:\Фільми\Mr.Zoo.The.Missing.Vip.2020.1080p.NF.WEB-DL_uk\Miseuteo Ju- sarajin VIP (2020) (1080p).
Format :
Format version : Version 4
File size : 3.55 GiB
Duration : 1 h 53 min
Overall bit rate mode : Variable
Overall bit rate : 4 460 kb/s
Movie name : Спасти панду / Мистер Чжу: пропавшая ВИП-персона / Miseuteo Ju: sarajin VIP / Mr. Zoo: The Missing VIP (2020) (1080p)
Encoded date : UTC 2020-09-30 09:57:30
Writing application : v47.0.0 ('Black Flag') 64-bit
Writing library : libebml v1.3.10 + v1.5.2

Video
ID : 1
Format : AVC
Format/Info : Advanced Video Codec
Format profile : [email protected]
Format settings : CABAC / 3 Ref Frames
Format settings, CABAC : Yes
Format settings, Reference frames : 3 frames
Codec ID : V_MPEG4/ISO/AVC
Duration : 1 h 53 min
Bit rate mode : Variable
Bit rate : 3 830 kb/s
Maximum bit rate : 5 745 kb/s
Width : 1 920 pixels
Height : 1 080 pixels
Display aspect ratio : 16:9
Frame rate mode : Constant
Frame rate : 23.976 (24000/1001) FPS
Color space : YUV
Chroma subsampling : 4:2:0
Bit depth : 8 bits
Scan type : Progressive
Bits/(Pixel*Frame) : 0.077
Stream size : 3.04 GiB (86%)
Title : Miseuteo Ju: sarajin VIP / Mr. Zoo: The Missing VIP (2020) (1080p)
Writing library : core 148 r2717 0d2410d
Encoding settings : cabac=1 / ref=3 / deblock=1:0:0 / analyse=0x1:0x111 / me=umh / subme=10 / psy=1 / psy_rd=1.00:0.00 / mixed_ref=1 / me_range=24 / chroma_me=1 / trellis=2 / 8x8dct=0 / cqm=0 / deadzone=21,11 / fast_pskip=1 / chroma_qp_offset=-2 / threads=8 / lookahead_threads=1 / sliced_threads=0 / nr=0 / decimate=1 / interlaced=0 / bluray_compat=0 / stitchable=1 / constrained_intra=0 / bframes=2 / b_pyramid=0 / b_adapt=2 / b_bias=0 / direct=3 / weightb=1 / open_gop=0 / weightp=2 / keyint=250 / keyint_min=23 / scenecut=0 / intra_refresh=0 / rc_lookahead=48 / rc=2pass / mbtree=1 / bitrate=3830 / ratetol=1.0 / qcomp=0.50 / qpmin=6 / qpmax=51 / qpstep=4 / cplxblur=20.0 / qblur=0.5 / vbv_maxrate=5745 / vbv_bufsize=7660 / nal_hrd=vbr / filler=0 / ip_ratio=1.40 / aq=1:1.00
Language : Korean
Default : Yes
Forced : Yes

Audio
ID : 2
Format : E-AC-3
Format/Info : Enhanced AC-3
Commercial name : Dolby Digital Plus
Codec ID : A_EAC3
Duration : 1 h 53 min
Bit rate mode : Constant
Bit rate : 640 kb/s
Channel(s) : 6 channels
Channel layout : L R C LFE Ls Rs
Sampling rate : 48.0 kHz
Frame rate : 31.250 FPS (1536 SPF)
Compression mode : Lossy
Stream size : 521 MiB (14%)
Language : Korean
Service kind : Complete Main
Default : No
Forced : No
Скріншоти




Джерело:
Особиста оцінка: 8 - мені сподобалося


Золотий реліз (завантажене не впливає на рейтинг)
 Трекер:    Зареєстрований   

Завантажити / скачати фільм українською



відео для новачків



 Зареєстрований:   2020-09-30 13:38
 Розмір:   3.55 GB 
 Оцінка фільму:   10/10 (Голосів: 3)
   
killer2015 
Поважний учасник


З нами з: 30.01.15
Востаннє: 04.12.20
Повідомлень: 201

2020-09-30 13:39  

Ваш часовий пояс: GMT + 2 Години

Нова тема   Відповісти