Історія про Затойчі / The Tale Of Zatoich / Zatôichi monogatari (1962) 720p Jap | sub Ukr

Нові коментарі

Нова тема   Відповісти
Автор Повідомлення
VladCastillo 
Частий відвідувач


З нами з: 20.01.12
Востаннє: 29.11.20
Повідомлень: 27

2020-09-29 23:47  
Історія про Затойчі / The Tale Of Zatoich / Zatôichi monogatari (1962) 720p Jap | sub Ukr

Історія про Затойчі / The Tale Of Zatoich / Zatôichi monogatari (1962) 720p Jap | sub Ukr


Жанр: самурайський бойовик, драма
Країна: Японія



Кінокомпанія: Daiei Motion Picture
Режисер: Kenji Misumi
Актори: Shintarô Katsu, Masayo Banri, Ryûzô Shimada
Переклад субтитрів: Владислав Кастільо

Сюжет:
Сліпого масажиста і чудового фехтувальника Затойчі (Затоічі) наймає керівник банди якудза Сукегоро, оскільки він вважає, що війна неминуча із суперником Шігезо. У відповідь Шігезо найняв вправного роніна Мікі Хірате.
Класика жанру. В кінці кров та сльози. Дивитися усім.


Тривалість: 01:36:22
Якість:
Відео:
кодек:
розмір кадру: 1280x538
бітрейт: 5914кб/с
Media Info

General
Unique ID : 210064432448698612394438587993516130667 (0x9E08F02561269F17A07EAE67A4AFC16B)
Complete name :The.Tale.Of.Zatoichi.1962.Criterion.Collection.720p.BluRay.-PublicHD.
Format :
Format version : Version 2
File size : 3.98 GiB
Duration : 1 h 36 min
Overall bit rate : 5 914 kb/s
Encoded date : UTC 2013-11-25 10:04:59
Writing application : v5.8.0 ('No Sleep / Pillow') built on Sep 2 2012 15:37:04
Writing library : libebml v1.2.3 + v1.3.0

Video
ID : 1
Format : AVC
Format/Info : Advanced Video Codec
Format profile : [email protected]
Format settings : CABAC / 5 Ref Frames
Format settings, CABAC : Yes
Format settings, Reference frames : 5 frames
Codec ID : V_MPEG4/ISO/AVC
Duration : 1 h 36 min
Bit rate : 5 156 kb/s
Width : 1 280 pixels
Height : 538 pixels
Display aspect ratio : 2.40:1
Frame rate mode : Constant
Frame rate : 23.976 (24000/1001) FPS
Color space : YUV
Chroma subsampling : 4:2:0
Bit depth : 8 bits
Scan type : Progressive
Bits/(Pixel*Frame) : 0.312
Stream size : 3.47 GiB (87%)
Language : English
Default : Yes
Forced : No

Audio
ID : 2
Format : AC-3
Format/Info : Audio Coding 3
Commercial name : Dolby Digital
Codec ID : A_AC3
Duration : 1 h 36 min
Bit rate mode : Constant
Bit rate : 640 kb/s
Channel(s) : 1 channel
Channel layout : C
Sampling rate : 48.0 kHz
Frame rate : 31.250 FPS (1536 SPF)
Compression mode : Lossy
Stream size : 441 MiB (11%)
Language : Japanese
Service kind : Complete Main
Default : Yes
Forced : No

Text #1
ID : 3
Format : VobSub
Muxing mode : zlib
Codec ID : S_VOBSUB
Codec ID/Info : Picture based subtitle format used on DVDs
Language : English
Default : Yes
Forced : No

Text #2
ID : 4
Format : PGS
Muxing mode : zlib
Codec ID : S_HDMV/PGS
Codec ID/Info : Picture based subtitle format used on BDs/HD-DVDs
Language : English
Default : No
Forced : No
01:31:07.170 : en:01:31:07.170
Аудіо:
мова: японська
переклад: оригінал
кодек: 2.0
бітрейт: 640 кб/с

Субтитри:
мова: українська
тип: програмні (м'які)
формат: *.srt
Скріншоти







Джерело: &
Особиста оцінка: 10 - без зайвих вагань рекомендую всім!


 Трекер:    Зареєстрований   

Завантажити / скачати фільм українською



відео для новачків



 Зареєстрований:   2020-09-29 23:47
 Розмір:   3.98 GB 
 Оцінка фільму:   10/10 (Голосів: 5)
   
igor911 
Модератор відео


З нами з: 18.01.08
Востаннє: 29.11.20
Повідомлень: 15083

2020-09-30 07:22  
Треба додати звіт Info та вказати джерело перекладу/субтитрів або зазначити, якщо це власний переклад.
Мінімум один скріншот має бути з українськими субтитрами (як зробити скріншот з субтитрами --> https://toloka.to/t38787#780104 )
VladCastillo написано:
Історія про Затойчі / The Tale Of Zatoich (1962) 720p | sub Ukr

Назву теми та заголовок треба виправити на "Історія про Затойчі / The Tale Of Zatoich / Zatôichi monogatari (1962) 720p Jap | sub Ukr"

VladCastillo 
Частий відвідувач


З нами з: 20.01.12
Востаннє: 29.11.20
Повідомлень: 27

2020-10-01 22:16  
igor911
Все виправи. Перевірте будь ласка.

Ваш часовий пояс: GMT + 2 Години

Нова тема   Відповісти