Енола Голмс / Enola Holmes (2020) UHD 2160p 4K HDR H.265 Ukr/Eng | Sub Ukr/Eng

Нові коментарі

Нова тема   Відповісти
Автор Повідомлення
Neo_Men 
Поважний учасник


З нами з: 21.11.15
Востаннє: 25.01.21
Повідомлень: 153

2020-09-29 21:17  
Енола Голмс / Enola Holmes (2020) UHD 2160p 4K HDR H.265 Ukr/Eng | Sub Ukr/Eng

Енола Голмс / Enola Holmes (2020) UHD 2160p 4K HDR H.265 Ukr/Eng | Sub Ukr/Eng


Жанр: пригодницький, кримінальний, драма, детектив
Країна: Велика Британія



Кінокомпанія: EH Productions, Legendary Entertainment, PCMA Productions
Режисер: Гаррі Бредбір
Актори: Міллі Боббі Браун, Генрі Кавілл, Сем Клафлін, Гелена Бонем Картер, Фіона Шоу, Аділь Ахтар, С'юзан Вокома, Берн Горман

Сюжет:
Історія про молодшу сестру Шерлока і Майкрофта - Енолу Голмс, яка, також як і її рідні брати, володіє винятковими здібностями.


Тривалість: 02:03:54
Якість: 2160p
Відео:
кодек: H.265
розмір кадру: 3840 x 1608
бітрейт: 10,2 Mб/с

Аудіо # 1:
мова: українська
переклад: багатоголосий закадровий
кодек: 5.1
бітрейт: 384 кб/с

Аудіо # 2:
мова: англійська
переклад: оригінал
кодек: E- 5.1
бітрейт: 768 кб/с

Джерело озвучення:


Субтитри:
мова: українська
тип: програмні (м'які)
формат: *.srt

Субтитри:
мова: англійська
тип: програмні (м'які)
формат: *.srt
Info
General
Unique ID : 180863021840425167346384027702070648038 (0x8810F37214AA834098A7E2944E5C9CE6)
Complete name : Enola Holmes 2020 2160p HEVC HDR [UKR_ENG] [Hurtom].
Format :
Format version : Version 4
File size : 9.70 GiB
Duration : 2 h 3 min
Overall bit rate : 11.2 Mb/s
Movie name : Enola Holmes 2020
Encoded date : UTC 2020-09-29 19:10:45
Writing application : v8.3.0 ('Over the Horizon') 64bit
Writing library : libebml v1.3.1 + v1.4.2
Cover : Yes
Attachments : Cover.jpg

Video
ID : 1
Format : HEVC
Format/Info : High Efficiency Video Coding
Commercial name : HDR10
Format profile : Main [email protected]@High
Codec ID : V_MPEGH/ISO/HEVC
Duration : 2 h 2 min
Bit rate : 10.2 Mb/s
Width : 3 840 pixels
Height : 1 608 pixels
Display aspect ratio : 2.40:1
Frame rate mode : Constant
Frame rate : 24.000 FPS
Color space : YUV
Chroma subsampling : 4:2:0 (Type 2)
Bit depth : 10 bits
Bits/(Pixel*Frame) : 0.069
Stream size : 8.70 GiB (90%)
Writing library : x265 3.4+2-73ca1d7be377:[Windows][GCC 10.2.1][64 bit] 10bit
Encoding settings : cpuid=1111039 / frame-threads=4 / numa-pools=16 / wpp / no-pmode / no-pme / no-psnr / no-ssim / log-level=2 / input-csp=1 / input-res=3840x1608 / interlace=0 / total-frames=0 / level-idc=51 / high-tier=1 / uhd-bd=0 / ref=4 / no-allow-non-conformance / repeat-headers / annexb / no-aud / no-hrd / info / hash=0 / no-temporal-layers / no-open-gop / min-keyint=24 / keyint=250 / gop-lookahead=0 / bframes=3 / b-adapt=2 / b-pyramid / bframe-bias=0 / rc-lookahead=20 / lookahead-slices=8 / scenecut=40 / hist-scenecut=0 / radl=0 / no-splice / no-intra-refresh / ctu=64 / min-cu-size=8 / no-rect / no-amp / max-tu-size=32 / tu-inter-depth=1 / tu-intra-depth=1 / limit-tu=0 / rdoq-level=0 / dynamic-rd=0.00 / no-ssim-rd / signhide / no-tskip / nr-intra=0 / nr-inter=0 / no-constrained-intra / no-strong-intra-smoothing / max-merge=3 / limit-refs=1 / no-limit-modes / me=1 / subme=2 / merange=57 / temporal-mvp / no-frame-dup / no-hme / weightp / no-weightb / no-analyze-src-pics / deblock=-3:-3 / no-sao / no-sao-non-deblock / rd=3 / selective-sao=0 / early-skip / rskip / no-fast-intra / no-tskip-fast / no-cu-lossless / b-intra / no-splitrd-skip / rdpenalty=0 / psy-rd=2.00 / psy-rdoq=0.00 / no-rd-refine / no-lossless / cbqpoffs=0 / crqpoffs=0 / rc=crf / crf=17.5 / qcomp=0.60 / qpstep=4 / stats-write=0 / stats-read=0 / vbv-maxrate=160000 / vbv-bufsize=160000 / vbv-init=0.9 / crf-max=0.0 / crf-min=0.0 / ipratio=1.40 / pbratio=1.30 / aq-mode=2 / aq-strength=1.00 / no-cutree / zone-count=0 / no-strict-cbr / qg-size=32 / no-rc-grain / qpmax=69 / qpmin=0 / no-const-vbv / sar=0 / overscan=0 / videoformat=5 / range=0 / colorprim=9 / transfer=16 / colormatrix=9 / chromaloc=1 / chromaloc-top=2 / chromaloc-bottom=2 / display-window=0 / master-display=G(13250,34500)B(7500,3000)R(34000,16000)WP(15635,16450)L(10000000,1) / cll=1043,196 / min-luma=0 / max-luma=1023 / log2-max-poc-lsb=8 / vui-timing-info / vui-hrd-info / slices=1 / no-opt-qp-pps / no-opt-ref-list-length-pps / no-multi-pass-opt-rps / scenecut-bias=0.05 / hist-threshold=0.01 / no-opt-cu-delta-qp / no-aq-motion / hdr10 / hdr10-opt / no-dhdr10-opt / no-idr-recovery-sei / analysis-reuse-level=0 / analysis-save-reuse-level=0 / analysis-load-reuse-level=0 / scale-factor=0 / refine-intra=0 / refine-inter=0 / refine-mv=1 / refine-ctu-distortion=0 / no-limit-sao / ctu-info=0 / no-lowpass-dct / refine-analysis-type=0 / copy-pic=1 / max-ausize-factor=1.0 / no-dynamic-refine / no-single-sei / no-hevc-aq / no-svt / no-field / qp-adaptation-range=1.00 / no-scenecut-aware-qpconformance-window-offsets / right=0 / bottom=0 / decoder-max-rate=0
Language : English
Default : Yes
Forced : No
Color range : Limited
Color primaries : BT.2020
Transfer characteristics : PQ
Matrix coefficients : BT.2020 non-constant
Mastering display color primaries : Display P3
Mastering display luminance : min: 0.0001 cd/m2, max: 1000 cd/m2
Maximum Content Light Level : 1043 cd/m2
Maximum Frame-Average Light Level : 196 cd/m2

Audio #1
ID : 2
Format : AC-3
Format/Info : Audio Coding 3
Commercial name : Dolby Digital
Codec ID : A_AC3
Duration : 2 h 2 min
Bit rate mode : Constant
Bit rate : 384 kb/s
Channel(s) : 6 channels
Channel layout : L R C LFE Ls Rs
Sampling rate : 48.0 kHz
Frame rate : 31.250 FPS (1536 SPF)
Bit depth : 16 bits
Compression mode : Lossy
Delay relative to video : 26 ms
Stream size : 337 MiB (3%)
Title : HDRezka Studio
Language : Ukrainian
Service kind : Complete Main
Default : Yes
Forced : No

Audio #2
ID : 3
Format : E-AC-3 JOC
Format/Info : Enhanced AC-3 with Joint Object Coding
Commercial name : Dolby Digital Plus with Dolby Atmos
Codec ID : A_EAC3
Duration : 2 h 3 min
Bit rate mode : Constant
Bit rate : 768 kb/s
Channel(s) : 6 channels
Channel layout : L R C LFE Ls Rs
Sampling rate : 48.0 kHz
Frame rate : 31.250 FPS (1536 SPF)
Compression mode : Lossy
Delay relative to video : 31 ms
Stream size : 681 MiB (7%)
Language : English
Service kind : Complete Main
Default : No
Forced : No
Complexity index : 16
Number of dynamic objects : 15
Bed channel count : 1 channel
Bed channel configuration : LFE

Text #1
ID : 4
Format : UTF-8
Codec ID : S_TEXT/UTF8
Codec ID/Info : UTF-8 Plain Text
Duration : 1 h 56 min
Bit rate : 2 b/s
Count of elements : 59
Stream size : 2.29 KiB (0%)
Title : Forced
Language : Ukrainian
Default : Yes
Forced : Yes

Text #2
ID : 5
Format : UTF-8
Codec ID : S_TEXT/UTF8
Codec ID/Info : UTF-8 Plain Text
Duration : 1 h 56 min
Bit rate : 69 b/s
Count of elements : 2067
Stream size : 59.4 KiB (0%)
Title : Full
Language : English
Default : No
Forced : No
Скріншоти



Джерело:
Особиста оцінка: 0 - не дивився


Авторський реліз (завантажувати можна без реєстрації)
 Трекер:    Зареєстрований   

Завантажити / скачати фільм українською



відео для новачків



 Зареєстрований:   2020-09-29 21:17
 Розмір:   9.7 GB 
 Оцінка фільму:   8.2/10 (Голосів: 14)
   
Інші релізи
   Енола Голмс / Enola Holmes (2020) Ukr/Eng antik_2008  65 / 0   1.99 GB   2020-09-27 13:21 
   Енола Голмс / Enola Holmes (2020) 1080p Ukr/Eng | Sub Eng/Fre/Spa antik_2008  58 / 0   5.59 GB   2020-09-27 12:42 
   Енола Холмс (Голмс) / Enola Holmes (2020) AVC Ukr/Eng | Sub Eng FAELIT  42 / 0   1.51 GB   2020-09-26 11:29 
І-р 
Свій


З нами з: 21.07.16
Востаннє: 25.01.21
Повідомлень: 143

2020-09-30 13:59  
Цей фільм - ще одна спроба невгамовних феміністок заявити про себе?
Neo_Men 
Поважний учасник


З нами з: 21.11.15
Востаннє: 25.01.21
Повідомлень: 153

2020-10-01 17:56  
І-р Телебачення менш дивимося ...
Звичайне кіно для перегляду під пиво.

vova77jio 
Новенький


З нами з: 29.01.13
Востаннє: 16.10.20
Повідомлень: 1

2020-10-02 19:46  
Фільм не відтворюється на Телевізорі LG 4K
ExorcistZp 
VIP


З нами з: 23.09.14
Востаннє: 26.01.21
Повідомлень: 378

2020-10-02 20:11  
І-р написано:
Цей фільм - ще одна спроба невгамовних феміністок заявити про себе?


Мені іноді здається, що невгамовні стали зовсім не феміністки, а ті, хто прагне їх у цьому звинуватити.

edward88 
Новенький


З нами з: 02.11.14
Востаннє: 25.01.21
Повідомлень: 1

2020-10-02 22:04  
Цитата:
Мені іноді здається, що невгамовні стали зовсім не феміністки, а ті, хто прагне їх у цьому звинуватити.

відкритий фемінізм, на ряду з іншими девіаціями на кшталт екоактивістів, лгбт-фагів, моралофагів чи прихильників теорії заговорів це явно відхилення від норми, а от ваш нонконформізм до цілком адекватного, хай і суб'єктивного посту - ось це реально бісить, так само як і бачити в кожному сучасному фільмі одного (навіть не знаю як тут цензурно написати щоб не забанили) афроамериканця/азіата та парочку дівчат-лезбійок, навіть якщо це фільм з 2,5 героїв.
краще хай знімають цікаві фільми не просякнуті жодною з модних сучасних тенденцій, яка тхне за версту - ось тоді і не буде нарікань, ні у кого

ExorcistZp 
VIP


З нами з: 23.09.14
Востаннє: 26.01.21
Повідомлень: 378

2020-10-02 22:39  
edward88
Вибачте, у Вас вийшов надзвичайно емоційний пост, але мені не зовсім зрозуміло до чого він. В цьому фільмі присутній відкритий фемінізм? Не підкажете, куди саме подивитись?

І прибережіть свої характеристики для когось іншого, якщо Ваша ласка. Якщо відверто - мені байдуже. Це було звичайне спостереження.

don pedro 
Попереджень: 1
Попереджень: 1 


З нами з: 29.06.11
Востаннє: 26.01.21
Повідомлень: 18636

2020-10-02 22:40  
edward88
Шо?

Andriy063 
Відео Гуртом - підтримка та поширення
Відео Гуртом - підтримка та поширення


З нами з: 26.09.10
Востаннє: 16.01.21
Повідомлень: 376

2020-10-03 02:42  
vova77jio написано:
Фільм не відтворюється на Телевізорі LG 4K

Те саме

Drool 
VIP


З нами з: 17.04.10
Востаннє: 21.01.21
Повідомлень: 1559

2020-10-04 13:01  
Andriy063 написано:
Те саме
А телевізор підтримує h.265, та ще й "Format profile : Main [email protected]@High" ?
Andriy063 
Відео Гуртом - підтримка та поширення
Відео Гуртом - підтримка та поширення


З нами з: 26.09.10
Востаннє: 16.01.21
Повідомлень: 376

2020-10-04 15:24  
Drool
ну інші ж 4K HEVC грає

Drool 
VIP


З нами з: 17.04.10
Востаннє: 21.01.21
Повідомлень: 1559

2020-10-06 21:20  
Andriy063 написано:
ну інші ж 4K HEVC грає
Отже, треба порівняти Info тих, що відтворюються і тих, що ні...
vitalikshvarc 
Новенький


З нами з: 05.01.10
Востаннє: 23.01.21
Повідомлень: 3

2020-10-25 20:50  
на телеку Hisense 55A7400F працює чудово!
SHEVA2018 
Свій


З нами з: 24.09.18
Востаннє: 26.01.21
Повідомлень: 54

2021-01-03 16:12  
Кому як, але мені фільм сподобався! Чекаю на продовження з тими ж акторами
Ваш часовий пояс: GMT + 2 Години

Нова тема   Відповісти