Снікерхеди (Сезон 1) / Sneakerheads (Season 1) (2020) 1080p Ukr/Eng | sub Eng/Multi

Нові коментарі

Нова тема   Відповісти
Автор Повідомлення
Anonymous 







2020-09-29 14:12  
Снікерхеди (Сезон 1) / Sneakerheads (Season 1) (2020) 1080p Ukr/Eng | sub Eng/Multi



Жанр: комедія
Країна: США



Кінокомпанія: Complex Networks, EMJAG Productions, Haven Entertainment / Netflix
Режисер: Дейв Мейерс
Актори: Аллен Мальдонадо, Ендрю Бечелор, Джернест Корчадо, Меттью Джостен, Яані Кінг, Джастін Лі, Джей Сілс, Аджа Еванс, Кенні Гонзалез, Веслі Кіммел, Інні Клемонс, Мерілін Токуда, Марк Л. Волберг, Роберт Джеймс Беддалл, Джон Бушемі

Сюжет:
Колись головний персонаж Девін активно колекціонував різного роду взуття. В основному це були кросівки. Головний персонаж вважає себе по праву колишнім снікерхедом, однак тепер вектор його розвитку трохи змінився. Персонаж вирішив закинути хобі, яке відбирало занадто багато грошей і часу. Правда, через те, що його приятель продовжив цим займатися і, більш того, почав проводити сумнівні махінації, чоловікові довелося повернутися в гру. У підсумку він заборгував близько п'яти тисяч доларів. Девін змушений знайти гроші, щоб вибратися з ями. До справи він підтягує багатьох інших адептів кросівочного колекціонування. Головні персонажі відправляються у велику подорож в надії відшукати рідкісну легендарну пару взуття, яка здатна затьмарити все те, що у них коли-небудь було і, звичайно ж, окупити чималий борг.


Тривалість: 1 серія: ~ 25 хв. (цілком серій: 6)
Перелік серій
01 - 100% Pure Adrenaline
02 - Hustling Backwards
03 - The Match
04 - CSI: Sandwich
05 - Jason F**king Statham
06 - Dick Pic
Якість:
Відео:
кодек:
розмір кадру: 1920 x 1080
бітрейт: 4165 кб/с

Аудіо # 1:
мова: українська
переклад: багатоголосий закадровий
кодек: 5.1
бітрейт: 384 кб/с

Аудіо # 2:
мова: англійська
переклад: оригінал
кодек: 5.1
бітрейт: 640 кб/с

Джерело озвучення:
DniproFilm

Субтитри:
мова: арабська, чеська, данська, німецька, грецька, англійська [SDH], іспанська, іспанська (європ.), фінська, французька, гебрейська, хорватська, угорська, індонезійська, італійська, японська, корейська, малайська, норвезька, нідерландська, польська, португальська, португальська (браз.), румунська, шведська, тайська, турецька, в'єтнамська, китайська (спрощ.), китайська (трад.)
тип: програмні (м'які)
формат: *.srt
Info
Код:
General
Unique ID                                : 248114421154276639262807173242996615809 (0xBAA9196DEC22703575A15D921ABB6A81)
Complete name                            : Sneakerheads S01E01 (2020) 1080p [Ukr_Eng] [Hurtom].
Format                                   :
Format version                           : Version 4
File size                                : 887 MiB
Duration                                 : 23 min 52 s
Overall bit rate mode                    : Variable
Overall bit rate                         : 5 197 kb/s
Movie name                               : Снікерхеди (Сезон 1, серія 1) (2020)
Encoded date                             : UTC 2020-09-29 10:46:22
Writing application                      : v50.0.0 ('Awakenings') 64-bit
Writing library                          : libebml v1.4.0 + v1.6.2
Cover                                    : Yes
Attachments                              : cover.jpg

Video
ID                                       : 1
Format                                   : AVC
Format/Info                              : Advanced Video Codec
Format profile                           : [email protected]
Format settings                          : CABAC / 3 Ref Frames
Format settings, CABAC                   : Yes
Format settings, Reference frames        : 3 frames
Codec ID                                 : V_MPEG4/ISO/AVC
Duration                                 : 23 min 51 s
Bit rate mode                            : Variable
Bit rate                                 : 4 165 kb/s
Nominal bit rate                         : 4 420 kb/s
Maximum bit rate                         : 6 630 kb/s
Width                                    : 1 920 pixels
Height                                   : 1 080 pixels
Display aspect ratio                     : 16:9
Frame rate mode                          : Constant
Frame rate                               : 23.976 (24000/1001) FPS
Color space                              : YUV
Chroma subsampling                       : 4:2:0
Bit depth                                : 8 bits
Scan type                                : Progressive
Bits/(Pixel*Frame)                       : 0.084
Stream size                              : 711 MiB (80%)
Writing library                          : core 148 r2722 1b0121b
Encoding settings                        : cabac=1 / ref=3 / deblock=1:0:0 / analyse=0x1:0x111 / me=umh / subme=10 / psy=1 / psy_rd=1.00:0.00 / mixed_ref=1 / me_range=24 / chroma_me=1 / trellis=2 / 8x8dct=0 / cqm=0 / deadzone=21,11 / fast_pskip=1 / chroma_qp_offset=-2 / threads=6 / lookahead_threads=1 / sliced_threads=0 / nr=0 / decimate=1 / interlaced=0 / bluray_compat=0 / stitchable=1 / constrained_intra=0 / bframes=2 / b_pyramid=0 / b_adapt=2 / b_bias=0 / direct=3 / weightb=1 / open_gop=0 / weightp=2 / keyint=250 / keyint_min=23 / scenecut=0 / intra_refresh=0 / rc_lookahead=48 / rc=2pass / mbtree=1 / bitrate=4420 / ratetol=1.0 / qcomp=0.50 / qpmin=6 / qpmax=51 / qpstep=4 / cplxblur=20.0 / qblur=0.5 / vbv_maxrate=6630 / vbv_bufsize=8840 / nal_hrd=vbr / filler=0 / ip_ratio=1.40 / aq=1:1.00
Default                                  : Yes
Forced                                   : No

Audio #1
ID                                       : 2
Format                                   : AC-3
Format/Info                              : Audio Coding 3
Commercial name                          : Dolby Digital
Codec ID                                 : A_AC3
Duration                                 : 23 min 52 s
Bit rate mode                            : Constant
Bit rate                                 : 384 kb/s
Channel(s)                               : 6 channels
Channel layout                           : L R C LFE Ls Rs
Sampling rate                            : 48.0 kHz
Frame rate                               : 31.250 FPS (1536 SPF)
Compression mode                         : Lossy
Stream size                              : 65.6 MiB (7%)
Language                                 : Ukrainian
Service kind                             : Complete Main
Default                                  : Yes
Forced                                   : Yes

Audio #2
ID                                       : 3
Format                                   : E-AC-3
Format/Info                              : Enhanced AC-3
Commercial name                          : Dolby Digital Plus
Codec ID                                 : A_EAC3
Duration                                 : 23 min 51 s
Bit rate mode                            : Constant
Bit rate                                 : 640 kb/s
Channel(s)                               : 6 channels
Channel layout                           : L R C LFE Ls Rs
Sampling rate                            : 48.0 kHz
Frame rate                               : 31.250 FPS (1536 SPF)
Compression mode                         : Lossy
Stream size                              : 109 MiB (12%)
Language                                 : English
Service kind                             : Complete Main
Default                                  : No
Forced                                   : No

Text #1
ID                                       : 4
Format                                   : UTF-8
Codec ID                                 : S_TEXT/UTF8
Codec ID/Info                            : UTF-8 Plain Text
Duration                                 : 22 min 11 s
Bit rate                                 : 167 b/s
Count of elements                        : 424
Stream size                              : 27.2 KiB (0%)
Title                                    : Arabic
Language                                 : Arabic
Default                                  : No
Forced                                   : No

Text #2
ID                                       : 5
Format                                   : UTF-8
Codec ID                                 : S_TEXT/UTF8
Codec ID/Info                            : UTF-8 Plain Text
Duration                                 : 22 min 11 s
Bit rate                                 : 81 b/s
Count of elements                        : 407
Stream size                              : 13.2 KiB (0%)
Title                                    : Czech
Language                                 : Czech
Default                                  : No
Forced                                   : No

Text #3
ID                                       : 6
Format                                   : UTF-8
Codec ID                                 : S_TEXT/UTF8
Codec ID/Info                            : UTF-8 Plain Text
Duration                                 : 22 min 11 s
Bit rate                                 : 77 b/s
Count of elements                        : 394
Stream size                              : 12.6 KiB (0%)
Title                                    : Danish
Language                                 : Danish
Default                                  : No
Forced                                   : No

Text #4
ID                                       : 7
Format                                   : UTF-8
Codec ID                                 : S_TEXT/UTF8
Codec ID/Info                            : UTF-8 Plain Text
Duration                                 : 22 min 11 s
Bit rate                                 : 87 b/s
Count of elements                        : 424
Stream size                              : 14.2 KiB (0%)
Title                                    : German
Language                                 : German
Default                                  : No
Forced                                   : No

Text #5
ID                                       : 8
Format                                   : UTF-8
Codec ID                                 : S_TEXT/UTF8
Codec ID/Info                            : UTF-8 Plain Text
Duration                                 : 22 min 11 s
Bit rate                                 : 136 b/s
Count of elements                        : 420
Stream size                              : 22.2 KiB (0%)
Title                                    : Greek
Language                                 : Greek
Default                                  : No
Forced                                   : No

Text #6
ID                                       : 9
Format                                   : UTF-8
Codec ID                                 : S_TEXT/UTF8
Codec ID/Info                            : UTF-8 Plain Text
Duration                                 : 22 min 40 s
Bit rate                                 : 109 b/s
Count of elements                        : 505
Stream size                              : 18.2 KiB (0%)
Title                                    : English [SDH]
Language                                 : English
Default                                  : No
Forced                                   : No

Text #7
ID                                       : 10
Format                                   : UTF-8
Codec ID                                 : S_TEXT/UTF8
Codec ID/Info                            : UTF-8 Plain Text
Duration                                 : 22 min 11 s
Bit rate                                 : 84 b/s
Count of elements                        : 402
Stream size                              : 13.7 KiB (0%)
Title                                    : Spanish
Language                                 : Spanish
Default                                  : No
Forced                                   : No

Text #8
ID                                       : 11
Format                                   : UTF-8
Codec ID                                 : S_TEXT/UTF8
Codec ID/Info                            : UTF-8 Plain Text
Duration                                 : 22 min 11 s
Bit rate                                 : 79 b/s
Count of elements                        : 406
Stream size                              : 13.0 KiB (0%)
Title                                    : European Spanish
Language                                 : Spanish
Default                                  : No
Forced                                   : No

Text #9
ID                                       : 12
Format                                   : UTF-8
Codec ID                                 : S_TEXT/UTF8
Codec ID/Info                            : UTF-8 Plain Text
Duration                                 : 22 min 11 s
Bit rate                                 : 82 b/s
Count of elements                        : 361
Stream size                              : 13.3 KiB (0%)
Title                                    : Finnish
Language                                 : Finnish
Default                                  : No
Forced                                   : No

Text #10
ID                                       : 13
Format                                   : UTF-8
Codec ID                                 : S_TEXT/UTF8
Codec ID/Info                            : UTF-8 Plain Text
Duration                                 : 22 min 11 s
Bit rate                                 : 82 b/s
Count of elements                        : 399
Stream size                              : 13.4 KiB (0%)
Title                                    : French
Language                                 : French
Default                                  : No
Forced                                   : No

Text #11
ID                                       : 14
Format                                   : UTF-8
Codec ID                                 : S_TEXT/UTF8
Codec ID/Info                            : UTF-8 Plain Text
Duration                                 : 22 min 11 s
Bit rate                                 : 152 b/s
Count of elements                        : 409
Stream size                              : 24.7 KiB (0%)
Title                                    : Hebrew
Language                                 : Hebrew
Default                                  : No
Forced                                   : No

Text #12
ID                                       : 15
Format                                   : UTF-8
Codec ID                                 : S_TEXT/UTF8
Codec ID/Info                            : UTF-8 Plain Text
Duration                                 : 22 min 11 s
Bit rate                                 : 76 b/s
Count of elements                        : 402
Stream size                              : 12.4 KiB (0%)
Title                                    : Croatian
Language                                 : Croatian
Default                                  : No
Forced                                   : No

Text #13
ID                                       : 16
Format                                   : UTF-8
Codec ID                                 : S_TEXT/UTF8
Codec ID/Info                            : UTF-8 Plain Text
Duration                                 : 22 min 11 s
Bit rate                                 : 89 b/s
Count of elements                        : 418
Stream size                              : 14.5 KiB (0%)
Title                                    : Hungarian
Language                                 : Hungarian
Default                                  : No
Forced                                   : No

Text #14
ID                                       : 17
Format                                   : UTF-8
Codec ID                                 : S_TEXT/UTF8
Codec ID/Info                            : UTF-8 Plain Text
Duration                                 : 22 min 11 s
Bit rate                                 : 82 b/s
Count of elements                        : 416
Stream size                              : 13.4 KiB (0%)
Title                                    : Indonesian
Language                                 : Indonesian
Default                                  : No
Forced                                   : No

Text #15
ID                                       : 18
Format                                   : UTF-8
Codec ID                                 : S_TEXT/UTF8
Codec ID/Info                            : UTF-8 Plain Text
Duration                                 : 22 min 11 s
Bit rate                                 : 78 b/s
Count of elements                        : 390
Stream size                              : 12.8 KiB (0%)
Title                                    : Italian
Language                                 : Italian
Default                                  : No
Forced                                   : No

Text #16
ID                                       : 19
Format                                   : UTF-8
Codec ID                                 : S_TEXT/UTF8
Codec ID/Info                            : UTF-8 Plain Text
Duration                                 : 22 min 11 s
Bit rate                                 : 87 b/s
Count of elements                        : 446
Stream size                              : 14.2 KiB (0%)
Title                                    : Japanese
Language                                 : Japanese
Default                                  : No
Forced                                   : No

Text #17
ID                                       : 20
Format                                   : UTF-8
Codec ID                                 : S_TEXT/UTF8
Codec ID/Info                            : UTF-8 Plain Text
Duration                                 : 22 min 11 s
Bit rate                                 : 111 b/s
Count of elements                        : 441
Stream size                              : 18.2 KiB (0%)
Title                                    : Korean
Language                                 : Korean
Default                                  : No
Forced                                   : No

Text #18
ID                                       : 21
Format                                   : UTF-8
Codec ID                                 : S_TEXT/UTF8
Codec ID/Info                            : UTF-8 Plain Text
Duration                                 : 22 min 11 s
Bit rate                                 : 79 b/s
Count of elements                        : 423
Stream size                              : 12.9 KiB (0%)
Title                                    : Malay
Language                                 : Malay
Default                                  : No
Forced                                   : No

Text #19
ID                                       : 22
Format                                   : UTF-8
Codec ID                                 : S_TEXT/UTF8
Codec ID/Info                            : UTF-8 Plain Text
Duration                                 : 22 min 11 s
Bit rate                                 : 74 b/s
Count of elements                        : 331
Stream size                              : 12.1 KiB (0%)
Title                                    : Norwegian
Language                                 : Norwegian Bokmal
Default                                  : No
Forced                                   : No

Text #20
ID                                       : 23
Format                                   : UTF-8
Codec ID                                 : S_TEXT/UTF8
Codec ID/Info                            : UTF-8 Plain Text
Duration                                 : 22 min 11 s
Bit rate                                 : 75 b/s
Count of elements                        : 398
Stream size                              : 12.3 KiB (0%)
Title                                    : Dutch
Language                                 : Dutch
Default                                  : No
Forced                                   : No

Text #21
ID                                       : 24
Format                                   : UTF-8
Codec ID                                 : S_TEXT/UTF8
Codec ID/Info                            : UTF-8 Plain Text
Duration                                 : 22 min 11 s
Bit rate                                 : 77 b/s
Count of elements                        : 400
Stream size                              : 12.6 KiB (0%)
Title                                    : Polish
Language                                 : Polish
Default                                  : No
Forced                                   : No

Text #22
ID                                       : 25
Format                                   : UTF-8
Codec ID                                 : S_TEXT/UTF8
Codec ID/Info                            : UTF-8 Plain Text
Duration                                 : 21 min 25 s
Bit rate                                 : 81 b/s
Count of elements                        : 341
Stream size                              : 12.8 KiB (0%)
Title                                    : Portuguese
Language                                 : Portuguese
Default                                  : No
Forced                                   : No

Text #23
ID                                       : 26
Format                                   : UTF-8
Codec ID                                 : S_TEXT/UTF8
Codec ID/Info                            : UTF-8 Plain Text
Duration                                 : 22 min 11 s
Bit rate                                 : 91 b/s
Count of elements                        : 404
Stream size                              : 14.9 KiB (0%)
Title                                    : Portuguese Brazilian
Language                                 : Portuguese
Default                                  : No
Forced                                   : No

Text #24
ID                                       : 27
Format                                   : UTF-8
Codec ID                                 : S_TEXT/UTF8
Codec ID/Info                            : UTF-8 Plain Text
Duration                                 : 22 min 11 s
Bit rate                                 : 93 b/s
Count of elements                        : 395
Stream size                              : 15.2 KiB (0%)
Title                                    : Romanian
Language                                 : Romanian
Default                                  : No
Forced                                   : No

Text #25
ID                                       : 28
Format                                   : UTF-8
Codec ID                                 : S_TEXT/UTF8
Codec ID/Info                            : UTF-8 Plain Text
Duration                                 : 22 min 11 s
Bit rate                                 : 83 b/s
Count of elements                        : 423
Stream size                              : 13.5 KiB (0%)
Title                                    : Swedish
Language                                 : Swedish
Default                                  : No
Forced                                   : No

Text #26
ID                                       : 29
Format                                   : UTF-8
Codec ID                                 : S_TEXT/UTF8
Codec ID/Info                            : UTF-8 Plain Text
Duration                                 : 22 min 11 s
Bit rate                                 : 238 b/s
Count of elements                        : 427
Stream size                              : 38.8 KiB (0%)
Title                                    : Thai
Language                                 : Thai
Default                                  : No
Forced                                   : No

Text #27
ID                                       : 30
Format                                   : UTF-8
Codec ID                                 : S_TEXT/UTF8
Codec ID/Info                            : UTF-8 Plain Text
Duration                                 : 22 min 11 s
Bit rate                                 : 86 b/s
Count of elements                        : 401
Stream size                              : 14.0 KiB (0%)
Title                                    : Turkish
Language                                 : Turkish
Default                                  : No
Forced                                   : No

Text #28
ID                                       : 31
Format                                   : UTF-8
Codec ID                                 : S_TEXT/UTF8
Codec ID/Info                            : UTF-8 Plain Text
Duration                                 : 22 min 11 s
Bit rate                                 : 116 b/s
Count of elements                        : 398
Stream size                              : 18.9 KiB (0%)
Title                                    : Vietnamese
Language                                 : Vietnamese
Default                                  : No
Forced                                   : No

Text #29
ID                                       : 32
Format                                   : UTF-8
Codec ID                                 : S_TEXT/UTF8
Codec ID/Info                            : UTF-8 Plain Text
Duration                                 : 22 min 11 s
Bit rate                                 : 96 b/s
Count of elements                        : 495
Stream size                              : 15.7 KiB (0%)
Title                                    : Chinese Simplified
Language                                 : Chinese
Default                                  : No
Forced                                   : No

Text #30
ID                                       : 33
Format                                   : UTF-8
Codec ID                                 : S_TEXT/UTF8
Codec ID/Info                            : UTF-8 Plain Text
Duration                                 : 22 min 11 s
Bit rate                                 : 98 b/s
Count of elements                        : 425
Stream size                              : 16.0 KiB (0%)
Title                                    : Chinese Traditional
Language                                 : Chinese
Default                                  : No
Forced                                   : No

Скріншоти





Джерело:
Подяка за постер пану mrgalser


Авторський реліз (завантажувати можна без реєстрації)
 Трекер:    Зареєстрований   

Завантажити / скачати серіал українською



відео для новачків



 Зареєстрований:   2020-09-29 14:12
 Розмір:   6.09 GB 
 Оцінка серіалу:   8.5/10 (Голосів: 6)
   
Ella1 
Свій


З нами з: 25.12.09
Востаннє: 23.11.20
Повідомлень: 95

2020-10-01 10:14  
Не "повинен", а "винен" або "заборгував".
Cartwright 
VIP


З нами з: 23.03.13
Востаннє: 25.11.20
Повідомлень: 392

2020-10-03 04:17  
Прикольний серіал про бариг кросівками. У нас можна такий самий зняти про харківських бариг з Барабашово. Вийде бомбезний серіал про підробку брендованого взуття.
mrgalser 
Частий відвідувач


З нами з: 19.12.18
Востаннє: 25.11.20
Повідомлень: 40

2020-10-05 11:53  
Ваш часовий пояс: GMT + 2 Години

Нова тема   Відповісти