Пінгвіни з Мадагаскару. Операція З Новим Роком! / The Madagascar Penguins in a Christmas Caper (2005) 1080p 2xUkr/Eng | Sub Ukr/Eng

Нові коментарі

Нова тема   Відповісти
Автор Повідомлення
Alukret 
Свій


З нами з: 11.06.14
Востаннє: 26.11.20
Повідомлень: 100

2020-09-28 23:35  
Пінгвіни з Мадагаскару. Операція З Новим Роком! / The Madagascar Penguins in a Christmas Caper (2005) 1080p 2xUkr/Eng | Sub Ukr/Eng

Пінгвіни з Мадагаскару. Операція З Новим Роком! / The Madagascar Penguins in a Christmas Caper (2005) 1080p 2xUkr/Eng | Sub Ukr/Eng


Жанр: анімація, сімейний, дитячий
Країна: США



Режисер: Гарі Труздейл
Актори: Кріс Міллер, Крістофер Найтс, Джон Ді Маджиі, Еліза Габріеллі, Біл Фагербакк, Шон Бішоп, Мітч Картер, Ріф Хаттон, Річард Міро, Холлі Дорфф

Сюжет:
Новий Рік приходить в місто, і всі мешканці Центрального Зоопарку готуються до його зустрічі. Пінгвіни прикрасили свою печеру і мріють про чорно-біле свято, коли юний Рядовий помічає, що Білий Ведмідь сумує в повній самотності. Рядовий вирішує, що ніхто не заслуговує таких канікул, і готує свій власний план допомоги...


Тривалість: 00:12:08
Якість:
Відео:
кодек:
розмір кадру: 1920 х 1080
бітрейт: 6785 кб/с

Аудіо # 1:
мова: українська
переклад: професійний дубльований
кодек: AC-3 2.0
бітрейт: 192 кб/с

Аудіо # 2:
мова: українська
переклад: одноголосий закадровий — greyknightnemo та richman
кодек: MP3
бітрейт: 256 кб/с

Аудіо # 3:
мова: англійська
переклад: оригінал
кодек: AC-3 5.1
бітрейт: 640 кб/с

Субтитри # 1 (Full):
мова: українська
тип: програмні (м'які)
формат: *.

Субтитри # 2 (Full):
мова: англійська
тип: програмні (м'які)
формат: *.srt
Info
Код:

General
Unique ID                                : 241941515656630850814573693227437529983 (0xB6043DB0D2ABD7C7DB7A021C4CAE1B7F)
Complete name                            : The Madagascar Penguins in a Christmas Caper (2005) 1080p [UKR_ENG] [Hurtom].
Format                                   :
Format version                           : Version 4
File size                                : 684 MiB
Duration                                 : 12 min 10 s
Overall bit rate                         : 7 857 kb/s
Movie name                               : The Madagascar Penguins in a Christmas Caper (2005)
Encoded date                             : UTC 2020-09-28 21:07:58
Writing application                      : v44.0.0 ('Domino') 64-bit
Writing library                          : libebml v1.3.10 + v1.5.2
Cover                                    : Yes
Attachments                              : cover.jpg

Video
ID                                       : 1
Format                                   : AVC
Format/Info                              : Advanced Video Codec
Format profile                           : [email protected]
Format settings                          : CABAC / 7 Ref Frames
Format settings, CABAC                   : Yes
Format settings, Reference frames        : 7 frames
Codec ID                                 : V_MPEG4/ISO/AVC
Duration                                 : 12 min 8 s
Bit rate                                 : 6 785 kb/s
Width                                    : 1 920 pixels
Height                                   : 1 080 pixels
Display aspect ratio                     : 16:9
Frame rate mode                          : Constant
Frame rate                               : 23.976 (24000/1001) FPS
Color space                              : YUV
Chroma subsampling                       : 4:2:0
Bit depth                                : 8 bits
Scan type                                : Progressive
Bits/(Pixel*Frame)                       : 0.136
Stream size                              : 589 MiB (86%)
Title                                    : AVC / 1080p / 6785 kbps
Writing library                          : core 72 r1235M 448b138
Encoding settings                        : cabac=1 / ref=7 / deblock=1:-1:-1 / analyse=0x3:0x113 / me=umh / subme=7 / psy=1 / psy_rd=1.0:0.2 / mixed_ref=1 / me_range=16 / chroma_me=1 / trellis=2 / 8x8dct=1 / cqm=0 / deadzone=21,11 / chroma_qp_offset=-3 / threads=6 / nr=0 / decimate=0 / mbaff=0 / bframes=5 / b_pyramid=1 / b_adapt=2 / b_bias=0 / direct=1 / wpredb=1 / keyint=250 / keyint_min=25 / scenecut=40 / rc=2pass / mbtree=0 / bitrate=6785 / ratetol=1.0 / qcomp=0.60 / qpmin=10 / qpmax=51 / qpstep=4 / cplxblur=20.0 / qblur=0.5 / ip_ratio=1.40 / pb_ratio=1.30 / aq=1:1.00
Default                                  : Yes
Forced                                   : No

Audio #1
ID                                       : 2
Format                                   : AC-3
Format/Info                              : Audio Coding 3
Commercial name                          : Dolby Digital
Codec ID                                 : A_AC3
Duration                                 : 12 min 8 s
Bit rate mode                            : Constant
Bit rate                                 : 192 kb/s
Channel(s)                               : 2 channels
Channel layout                           : L R
Sampling rate                            : 48.0 kHz
Frame rate                               : 31.250 FPS (1536 SPF)
Bit depth                                : 16 bits
Compression mode                         : Lossy
Stream size                              : 16.7 MiB (2%)
Title                                    : AC-3 / 2.0 / 192 kbps / DUB / ТЕТ
Language                                 : Ukrainian
Service kind                             : Complete Main
Default                                  : No
Forced                                   : No

Audio #2
ID                                       : 3
Format                                   : MPEG Audio
Format version                           : Version 1
Format profile                           : Layer 3
Format settings                          : Joint stereo
Codec ID                                 : A_MPEG/L3
Codec ID/Hint                            : MP3
Duration                                 : 12 min 10 s
Bit rate mode                            : Constant
Bit rate                                 : 256 kb/s
Channel(s)                               : 2 channels
Sampling rate                            : 44.1 kHz
Frame rate                               : 38.281 FPS (1152 SPF)
Compression mode                         : Lossy
Delay relative to video                  : 22 ms
Stream size                              : 22.3 MiB (3%)
Title                                    : MP3 / 2.0 / 256 kbps / VO / greyknightnemo & richman [Hurtom]
Language                                 : Ukrainian
Default                                  : Yes
Forced                                   : Yes

Audio #3
ID                                       : 4
Format                                   : AC-3
Format/Info                              : Audio Coding 3
Commercial name                          : Dolby Digital
Codec ID                                 : A_AC3
Duration                                 : 12 min 8 s
Bit rate mode                            : Constant
Bit rate                                 : 640 kb/s
Channel(s)                               : 6 channels
Channel layout                           : L R C LFE Ls Rs
Sampling rate                            : 48.0 kHz
Frame rate                               : 31.250 FPS (1536 SPF)
Bit depth                                : 16 bits
Compression mode                         : Lossy
Stream size                              : 55.6 MiB (8%)
Title                                    : AC-3 / 5.1 / 640 kbps
Language                                 : English
Service kind                             : Complete Main
Default                                  : No
Forced                                   : No

Text #1
ID                                       : 5
Format                                   :
Codec ID                                 : S_TEXT/
Codec ID/Info                            : Advanced Sub Station Alpha
Duration                                 : 10 min 27 s
Bit rate                                 : 164 b/s
Count of elements                        : 147
Compression mode                         : Lossless
Stream size                              : 12.6 KiB (0%)
Title                                    : Full
Language                                 : Ukrainian
Default                                  : Yes
Forced                                   : No

Text #2
ID                                       : 6
Format                                   : UTF-8
Codec ID                                 : S_TEXT/UTF8
Codec ID/Info                            : UTF-8 Plain Text
Duration                                 : 10 min 14 s
Bit rate                                 : 63 b/s
Count of elements                        : 181
Stream size                              : 4.75 KiB (0%)
Title                                    : Full
Language                                 : English
Default                                  : No
Forced                                   : No

Скріншоти


Подяка:
За одноголосий переклад — greyknightnemo та richman
За запис з телеканалу ТЕТ — РОМЕО
За українізований постер — Воїн

Джерело: &
Особиста оцінка: 10 - без зайвих вагань рекомендую всім!


Авторський реліз (завантажувати можна без реєстрації)
 Трекер:    Зареєстрований   

Завантажити / скачати фільм українською



відео для новачків



 Зареєстрований:   2020-09-28 23:35
 Розмір:   684 MB 
 Оцінка фільму:   10/10 (Голосів: 3)
   
Ваш часовий пояс: GMT + 2 Години

Нова тема   Відповісти