Мопсики-приятелі / Puppy Dog Pals (Сезон 1, 22 серій з 25) (2018) 1080p

Нові коментарі

Нова тема   Відповісти
Автор Повідомлення
sergiyko.5 
VIP


З нами з: 25.02.16
Востаннє: 25.10.20
Повідомлень: 3615

2020-09-27 21:39  
Мопсики-приятелі / Puppy Dog Pals (Сезон 1) (2018) 1080p


Мопсики-приятелі / Puppy Dog Pals (Сезон 1, 22 серій з 25) (2018) 1080p

Жанр: дитячий
Країна: США
Кінокомпанія: Disney Junior
Режисер: Дон Маккіннон / Don MacKinnon, Тревор Уолл / Trevor Wall

Сюжет:
Мопси не бояться мандрувати світом, досліджувати нові місця, цікавляться культурою та традиціями інших країн світу. Незважаючи на самостійність мопсики все одно повертаються додому, до свого господаря Боба і кішки-подружки Фирк.




Тривалість: 1 серія 00:22:39 (цілком серій: 22 з 25)
Якість:

Відео: кодек: розмір кадру: 1920 х 1080 бітрейт: 7300 кб/с
Аудіо: мова: українська озвучення: професійне дубльоване кодек: MP2 2.0 бітрейт: 192 кб/с
Озвучення:

Примітка: звук записано з трансляції каналу Т2.
Перелік серій
01.Hawaii Pug Oh-A.R.F.
02.The French Toast Connection-Take Me Out to the Pug Game
03.A Pyramid Scheme-Special Delivery
04.Design A Dog-Ice, Ice Puggy
05.The Go Long Retriever-Pot O' Pugs

07.Pigs and Pugs-Bob Loves Mona
08.Art for Pug's Sake-Winter Wonderpug

10.Bye Bye, Butterfly-A Seat at the Theatre
11.The Great Pug scape-Luck of the Pug ish
12.Don't Rain on my Pug rade-Their Royal Pug ness
13.Scuba Doggies-Walking the Bob

15.Leave it to Beavers-Counting Sheep
16.Captain Rolly-The Coolest Dogs in Town
17.Puzzling Pugs-Rhapsody in Pug
18.The Legend of Ol' Snapper-Adventures in Puppy Sitting
19.Puggy ology-Squirrels Just Wanna Have Fun
20.Bingo & Rolly's Birthday-Electric Pugaloo
21.Close Encounters of a Pug Kind-History Mystery
22.The Great Shirt Rescue-A Pugtastic Day with Grandma
23.Return to the Pumpkin Patch-Haunted Howl-oween
24.Bob's Boomerang-Fetch that Fish
25.A Very Pug Christmas-The Latke Kerfuffle
Про файл:
General
Unique ID : 277964771682541452691146817573442300833 (0xD11E11568B6F1EB3E040BCFE123C2BA1)
Complete name : D:\Documents\Torrents\Puppy Dog Pals S01 1080p \S01E01.Hawaii Pug Oh-A.R.F.1080p..
Format :
Format version : Version 4
File size : 1.19 GiB
Duration : 22 min 38 s
Overall bit rate : 7 520 kb/s
Encoded date : UTC 2020-09-27 18:31:29
Writing application : v49.0.0 ('Sick Of Losing Soulmates') 64-bit
Writing library : libebml v1.4.0 + v1.6.1

Video
ID : 1
Format : AVC
Format/Info : Advanced Video Codec
Format profile : [email protected]
Format settings : CABAC / 4 Ref Frames
Format settings, CABAC : Yes
Format settings, Reference : 4 frames
Codec ID : V_MPEG4/ISO/AVC
Duration : 22 min 38 s
Bit rate : 7 327 kb/s
Width : 1 920 pixels
Height : 1 080 pixels
Display aspect ratio : 16:9
Frame rate mode : Constant
Frame rate : 25.000 FPS
Color space : YUV
Chroma subsampling : 4:2:0
Bit depth : 8 bits
Scan type : Progressive
Bits/(Pixel*Frame) : 0.141
Stream size : 1.16 GiB (97%)
Language : English
Default : Yes
Forced : No

Audio
ID : 2
Format : MPEG Audio
Format version : Version 1
Format profile : Layer 2
Format settings : Joint stereo / Intensity Stereo + MS Stereo
Codec ID : A_MPEG/L2
Codec ID/Hint : MP2
Duration : 22 min 38 s
Bit rate mode : Constant
Bit rate : 192 kb/s
Channel(s) : 2 channels
Sampling rate : 48.0 kHz
Frame rate : 41.667 FPS (1152 SPF)
Compression mode : Lossy
Delay relative to video : -160 ms
Stream size : 31.1 MiB (3%)
Language : Ukrainian
Default : Yes
Forced : No
Скріншоти:


Запис/зведення: sergiyko


Бронзовий реліз (на рейтинг впливає 75% завантаженого)
 Трекер:    Зареєстрований   

Завантажити / скачати мультфільм українською



відео для новачків



 Зареєстрований:   2020-10-23 17:59
 Розмір:   25.99 GB 
 Оцінка мультсеріалу:   8.7/10 (Голосів: 11)
   
QUARESMA177 
VIP


З нами з: 27.04.09
Востаннє: 24.10.20
Повідомлень: 469

2020-09-30 23:20  
підкажете, чи очікувати наступні серії?
sergiyko.5 
VIP


З нами з: 25.02.16
Востаннє: 25.10.20
Повідомлень: 3615

2020-10-01 17:50  
QUARESMA177
Повідомляю, мультсеріал трансюється з 27 вересня 2020 року, поступово буду додавати інші серії.

QUARESMA177 
VIP


З нами з: 27.04.09
Востаннє: 24.10.20
Повідомлень: 469

2020-10-01 18:53  
sergiyko.5
дякую.

sergiyko.5 
VIP


З нами з: 25.02.16
Востаннє: 25.10.20
Повідомлень: 3615

2020-10-02 00:00  
Додав 2-5 серії.
sergiyko.5 
VIP


З нами з: 25.02.16
Востаннє: 25.10.20
Повідомлень: 3615

2020-10-18 00:09  
Додав 7,8,10-13,15-21 серії.
sergiyko.5 
VIP


З нами з: 25.02.16
Востаннє: 25.10.20
Повідомлень: 3615

2020-10-23 17:59  
Додав 22-25 серії. Відсутні будуть додаватись після повтору.
Ваш часовий пояс: GMT + 2 Години

Нова тема   Відповісти