Формула 1. Сезон 2020. Етап 10. Гран-Прі сусідньої країни. Гонка (27.09.2020) 1080p 50fps 2xUkr/Eng/Int

Нові коментарі

Нова тема   Відповісти
Автор Повідомлення
sergiyko.5 
Забанено
Забанено


З нами з: 25.02.16
Востаннє: 29.10.20
Повідомлень: 3651

2020-09-27 17:40  
Формула 1. Сезон 2020. Етап 10. Гран-Прі сусідньої країни. Гонка (27.09.2020) 1080p 50fps 2xUkr/Eng/Int


Формула 1. Сезон 2020. Етап 10. Гран-Прі сусідньої країни. Гонка (27.09.2020) 1080p 50fps 2xUkr/Eng/Int

Жанр: Перегони Формули 1
Країна: росія
Телеканал: Sky Sports F1
Коментар: Максим Подзігун, Роман Гончаров, англійською

Опис:
Гонка десятого етапу Гран-Прі россії 2020 року.


Якість:

Відео: кодек: розмір кадру: 1920 х 1080 бітрейт: 9500 кб/с 50 кад/с
Аудіо 1: мова: українська кодек: 2.0 бітрейт: 192 кб/с
Аудіо 2: мова: українська кодек: 2.0 бітрейт: 192 кб/с
Аудіо 3: мова: англійська кодек: 5.1 бітрейт: 384 кб/с
Аудіо 4: мова: - кодек: 2.0 бітрейт: 192 кб/с
Тривалість:
02:00:02
Про файл:
General
Unique ID : 133411101391035052877990900622032036362 (0x645E0B235B9A75227B1C1FCFE502E20A)
Complete name : D:\Documents\Torrents\SPORT\Formula 1\F1.2020.10.russia.Race.1080p.50fps..Ukr.Eng.Int.
Format :
Format version : Version 4
File size : 8.79 GiB
Duration : 2 h 0 min
Overall bit rate : 10.5 Mb/s
Movie name : rip by sergiyko
Encoded date : UTC 2020-09-27 15:27:50
Writing application : v49.0.0 ('Sick Of Losing Soulmates') 64-bit
Writing library : libebml v1.4.0 + v1.6.1

Video
ID : 1
Format : AVC
Format/Info : Advanced Video Codec
Format profile : [email protected]
Format settings : CABAC / 4 Ref Frames
Format settings, CABAC : Yes
Format settings, Reference : 4 frames
Codec ID : V_MPEG4/ISO/AVC
Duration : 2 h 0 min
Bit rate : 9 522 kb/s
Width : 1 920 pixels
Height : 1 080 pixels
Display aspect ratio : 16:9
Frame rate mode : Constant
Frame rate : 50.000 FPS
Color space : YUV
Chroma subsampling : 4:2:0
Bit depth : 8 bits
Scan type : Progressive
Bits/(Pixel*Frame) : 0.092
Stream size : 7.98 GiB (91%)
Title : Sky Sports F1 UK
Writing library : core 157 r2935M 545de2f
Encoding settings : cabac=1 / ref=4 / deblock=1:-3:-3 / analyse=0x3:0x113 / me=umh / subme=9 / psy=1 / psy_rd=1.00:0.15 / mixed_ref=1 / me_range=24 / chroma_me=1 / trellis=1 / 8x8dct=1 / cqm=0 / deadzone=21,11 / fast_pskip=1 / chroma_qp_offset=-3 / threads=64 / lookahead_threads=7 / sliced_threads=0 / nr=0 / decimate=1 / interlaced=0 / bluray_compat=0 / constrained_intra=0 / bframes=6 / b_pyramid=2 / b_adapt=2 / b_bias=0 / direct=1 / weightb=1 / open_gop=0 / weightp=2 / keyint=250 / keyint_min=25 / scenecut=40 / intra_refresh=0 / rc_lookahead=40 / rc=crf / mbtree=1 / crf=20.9 / qcomp=0.60 / qpmin=0 / qpmax=69 / qpstep=4 / ip_ratio=1.40 / aq=3:0.80
Language : English
Default : Yes
Forced : No

Audio #1
ID : 2
Format : LC
Format/Info : Advanced Audio Codec Low Complexity
Codec ID : A_AAC-2
Duration : 2 h 0 min
Bit rate : 192 kb/s
Channel(s) : 2 channels
Channel layout : L R
Sampling rate : 48.0 kHz
Frame rate : 46.875 FPS (1024 SPF)
Compression mode : Lossy
Delay relative to video : -31 ms
Stream size : 165 MiB (2%)
Title : Максим Подзігун
Language : Ukrainian
Default : Yes
Forced : Yes

Audio #2
ID : 3
Format : LC
Format/Info : Advanced Audio Codec Low Complexity
Codec ID : A_AAC-2
Duration : 2 h 0 min
Bit rate : 192 kb/s
Channel(s) : 2 channels
Channel layout : L R
Sampling rate : 48.0 kHz
Frame rate : 46.875 FPS (1024 SPF)
Compression mode : Lossy
Delay relative to video : -31 ms
Stream size : 165 MiB (2%)
Title : Роман Гончаров
Language : Ukrainian
Default : No
Forced : No

Audio #3
ID : 4
Format : AC-3
Format/Info : Audio Coding 3
Commercial name : Dolby Digital
Codec ID : A_AC3
Duration : 2 h 0 min
Bit rate mode : Constant
Bit rate : 384 kb/s
Channel(s) : 6 channels
Channel layout : L R C LFE Ls Rs
Sampling rate : 48.0 kHz
Frame rate : 31.250 FPS (1536 SPF)
Compression mode : Lossy
Delay relative to video : 700 ms
Stream size : 330 MiB (4%)
Title : Sky Sports F1 UK
Language : English
Service kind : Complete Main
Default : No
Forced : No

Audio #4
ID : 5
Format : LC
Format/Info : Advanced Audio Codec Low Complexity
Codec ID : A_AAC-2
Duration : 2 h 0 min
Bit rate : 192 kb/s
Channel(s) : 2 channels
Channel layout : L R
Sampling rate : 48.0 kHz
Frame rate : 46.875 FPS (1024 SPF)
Compression mode : Lossy
Delay relative to video : -31 ms
Stream size : 165 MiB (2%)
Title : INT
Default : No
Forced : No
Скріншоти:


Запис/зведення: sergiyko



Срібний реліз (на рейтинг впливає 50% завантаженого)
 Трекер:    Зареєстрований   

Завантажити / скачати торрент



відео для новачків



 Зареєстрований:   2020-09-27 17:40
 Розмір:   8.79 GB 
 Оцінка:   9.6/10 (Голосів: 14)
   
sergiyko.5 
Забанено
Забанено


З нами з: 25.02.16
Востаннє: 29.10.20
Повідомлень: 3651

2020-09-27 18:17  
Звертаю увагу, сьогодні зробив два варіанти гонки данний реліз 1080p 50fps тривалістю 2 години і
1080p 25fps 2 години 12 хв https://toloka.to/t114710
Обирайте на свій смак, можете писати, де якісніша картинка.

vadYOsa 
Новенький


З нами з: 04.04.12
Востаннє: 25.10.20
Повідомлень: 5

2020-09-27 19:53  
Дякую! Спробую переставити кодеки і глянути на улюбленому Light Alloy це якісніше відео... якщо знову будуть лаги доведеться качнути 25fps.
taras89 
Новенький


З нами з: 19.10.09
Востаннє: 28.10.20
Повідомлень: 11

2020-10-01 09:47  
Гран - Прі на тій стороні
grifius 
Новенький


З нами з: 14.09.16
Востаннє: 29.10.20
Повідомлень: 3

2020-10-01 16:40  
Знову сусідньої країни. Якої? Білорусі?
misamisk 
Частий відвідувач


З нами з: 16.10.17
Востаннє: 28.10.20
Повідомлень: 35

2020-10-01 17:17  
grifius написано:
Знову сусідньої країни. Якої? Білорусі?

Росії

VicCob 
Свій


З нами з: 16.06.10
Востаннє: 25.10.20
Повідомлень: 58

2020-10-02 10:22  
мордору
grifius 
Новенький


З нами з: 14.09.16
Востаннє: 29.10.20
Повідомлень: 3

2020-10-02 15:28  
VicCob
👍

Ваш часовий пояс: GMT + 2 Години

Нова тема   Відповісти