Формула 1. Сезон 2020. Етап 10. Гран-Прі сусідньої країни. Гонка (27.09.2020) 1080p 2xUkr/Eng/Int

Нові коментарі

Нова тема   Відповісти
Автор Повідомлення
sergiyko.5 
Забанено
Забанено


З нами з: 25.02.16
Востаннє: 29.10.20
Повідомлень: 3651

2020-09-27 16:24  
Формула 1. Сезон 2020. Етап 10. Гран-Прі сусідньої країни. Гонка (27.09.2020) 1080p 2xUkr/Eng/Int


Формула 1. Сезон 2020. Етап 10. Гран-Прі сусідньої країни. Гонка (27.09.2020) 1080p 2xUkr/Eng/Int

Жанр: Перегони Формули 1
Країна: росія
Телеканал: F1TV
Коментар: Максим Подзігун, Роман Гончаров, англійською

Опис:
Гонка десятого етапу Гран-Прі россії 2020 року.


Якість:

Відео: кодек: розмір кадру: 1920 х 1080 бітрейт: 5500 кб/с 25 кад/с
Аудіо 1: мова: українська кодек: 2.0 бітрейт: 192 кб/с
Аудіо 2: мова: українська кодек: 2.0 бітрейт: 192 кб/с
Аудіо 3: мова: англійська кодек: 2.0 бітрейт: 128 кб/с
Аудіо 4: мова: - кодек: 2.0 бітрейт: 128 кб/с
Тривалість:
02:12:04
Про файл:
General
Unique ID : 325977426364986704613014206071613254450 (0xF53CF7FA4D692D04F45EBECD509D6B32)
Complete name : D:\Documents\Torrents\SPORT\Formula 1\F1.2020.10.russia.Race.1080p..Ukr.Eng.Int.
Format :
Format version : Version 4
File size : 5.54 GiB
Duration : 2 h 12 min
Overall bit rate : 6 008 kb/s
Movie name : rip by sergiyko
Encoded date : UTC 2020-09-27 14:17:23
Writing application : v49.0.0 ('Sick Of Losing Soulmates') 64-bit
Writing library : libebml v1.4.0 + v1.6.1

Video
ID : 1
Format : AVC
Format/Info : Advanced Video Codec
Format profile : [email protected]
Format settings : CABAC / 4 Ref Frames
Format settings, CABAC : Yes
Format settings, Reference : 4 frames
Format settings, GOP : M=4, N=50
Codec ID : V_MPEG4/ISO/AVC
Duration : 2 h 12 min
Bit rate mode : Constant
Bit rate : 5 500 kb/s
Width : 1 920 pixels
Height : 1 080 pixels
Display aspect ratio : 16:9
Frame rate mode : Constant
Frame rate : 25.000 FPS
Color space : YUV
Chroma subsampling : 4:2:0
Bit depth : 8 bits
Scan type : Progressive
Bits/(Pixel*Frame) : 0.106
Stream size : 5.07 GiB (91%)
Title : F1TV
Language : English
Default : Yes
Forced : No

Audio #1
ID : 2
Format : AC-3
Format/Info : Audio Coding 3
Commercial name : Dolby Digital
Codec ID : A_AC3
Duration : 2 h 12 min
Bit rate mode : Constant
Bit rate : 192 kb/s
Channel(s) : 2 channels
Channel layout : L R
Sampling rate : 48.0 kHz
Frame rate : 31.250 FPS (1536 SPF)
Compression mode : Lossy
Delay relative to video : 8 ms
Stream size : 181 MiB (3%)
Title : Максим Подзігун
Language : Ukrainian
Service kind : Complete Main
Default : Yes
Forced : Yes

Audio #2
ID : 3
Format : AC-3
Format/Info : Audio Coding 3
Commercial name : Dolby Digital
Codec ID : A_AC3
Duration : 2 h 12 min
Bit rate mode : Constant
Bit rate : 192 kb/s
Channel(s) : 2 channels
Channel layout : L R
Sampling rate : 48.0 kHz
Frame rate : 31.250 FPS (1536 SPF)
Compression mode : Lossy
Delay relative to video : 8 ms
Stream size : 181 MiB (3%)
Title : Роман Гончаров
Language : Ukrainian
Service kind : Complete Main
Default : No
Forced : No

Audio #3
ID : 4
Format : LC
Format/Info : Advanced Audio Codec Low Complexity
Codec ID : A_AAC-2
Duration : 2 h 12 min
Bit rate : 61.7 kb/s
Channel(s) : 2 channels
Channel layout : L R
Sampling rate : 44.1 kHz
Frame rate : 43.066 FPS (1024 SPF)
Compression mode : Lossy
Delay relative to video : 18 ms
Stream size : 58.3 MiB (1%)
Title : Sky Sports F1 UK
Language : English
Default : No
Forced : No

Audio #4
ID : 5
Format : LC
Format/Info : Advanced Audio Codec Low Complexity
Codec ID : A_AAC-2
Duration : 2 h 12 min
Bit rate : 61.7 kb/s
Channel(s) : 2 channels
Channel layout : L R
Sampling rate : 44.1 kHz
Frame rate : 43.066 FPS (1024 SPF)
Compression mode : Lossy
Delay relative to video : 18 ms
Stream size : 58.3 MiB (1%)
Title : INT
Default : No
Forced : No
Скріншоти:


Запис/зведення: sergiyko



Срібний реліз (на рейтинг впливає 50% завантаженого)
 Трекер:    Зареєстрований   

Завантажити / скачати торрент



відео для новачків



 Зареєстрований:   2020-09-27 16:24
 Розмір:   5.54 GB 
 Оцінка:   9.7/10 (Голосів: 26)
   
Umbrella.Corps 
Свій


З нами з: 09.04.17
Востаннє: 28.10.20
Повідомлень: 61

2020-09-27 16:30  
дякую)
Susdrik 
Новенький


З нами з: 26.03.17
Востаннє: 29.10.20
Повідомлень: 1

2020-09-27 16:35  
Дякую
iubitel38 
Новенький


З нами з: 11.08.18
Востаннє: 27.09.20
Повідомлень: 1

2020-09-27 18:15  
щиро дякую

Додано через 46 секунд:

щиро дякую

aps 
Новенький


З нами з: 06.03.17
Востаннє: 19.10.20
Повідомлень: 6

2020-10-10 20:33  
Не дивиться!
ПТН ПНХ !

Ваш часовий пояс: GMT + 2 Години

Нова тема   Відповісти