Злочинець: Велика Британія (Сезон 2) / Criminal: UK (Season 2) (2020) 1080p Ukr/Eng | sub Eng/Multi

Нові коментарі

Нова тема   Відповісти
Останній раз роздавалося ssTAss (2020-11-30)
Автор Повідомлення
Anonymous 







2020-09-27 15:37  
Злочинець: Велика Британія (Сезон 2) / Criminal: UK (Season 2) (2020) 1080p Ukr/Eng | sub Eng/Multi

Злочинець: Велика Британія (Сезон 2) / Criminal: UK (Season 2) (2020) 1080p Ukr/Eng | sub Eng/Multi


Жанр: кримінальний, драма, трилер
Країна: Велика Британія, Франція, Німеччина, Іспанія



Кінокомпанія: Idiotlamp Productions / Netflix
Режисер: Джим Філд Сміт
Актори: Шерон Горґан, Кунал Нейер, Софі Оконедо, Марк Стенлі, Кевін Елдон, Девід Теннант, Гейлі Етвелл, Клер-Хоуп Ешиті, Кіт Гарінґтон

Сюжет:
Драма в жанрі "кішки-мишки", в якій розповідається про напружений психологічний конфлікт між детективами і підозрюваними. Історії відбуваються в рамках поліцейського допиту.


Тривалість: 1 серія: ~ 50 хв. (цілком серій: 4)
Перелік серій
1. Julia
2. Alex
3. Danielle
4. Sandeep
Якість:
Відео:
кодек:
розмір кадру: 1920 x 1080
бітрейт: 3783 кб/с

Аудіо # 1:
мова: українська
переклад: багатоголосий закадровий
кодек: 5.1
бітрейт: 384 кб/с

Аудіо # 2:
мова: англійська
переклад: оригінал
кодек: 5.1
бітрейт: 768 кб/с

Джерело озвучення:
DniproFilm

Субтитри:
мова: англійська, чеська, данська, німецька, грецька, іспанська, фінська, французька, угорська, індонезійська, італійська, норвезька, нідерландська, польська, португальська, шведська, турецька
тип: програмні (м'які)
формат: *.srt
Info
Код:
General
Unique ID                                : 8483782568270303173015253945081087053 (0x661EAC658148717DDD97DAC85EF444D)
Complete name                            : Criminal; UK S02E01 (2020) 1080p [Ukr_Eng] [Hurtom].
Format                                   :
Format version                           : Version 4
File size                                : 1.65 GiB
Duration                                 : 47 min 52 s
Overall bit rate mode                    : Variable
Overall bit rate                         : 4 937 kb/s
Movie name                               : Злочинець: Велика Британія (Сезон 2, серія 1) (2020)
Encoded date                             : UTC 2020-09-27 00:14:08
Writing application                      : v50.0.0 ('Awakenings') 64-bit
Writing library                          : libebml v1.4.0 + v1.6.2
Cover                                    : Yes
Attachments                              : cover.jpg

Video
ID                                       : 1
Format                                   : AVC
Format/Info                              : Advanced Video Codec
Format profile                           : [email protected]
Format settings                          : CABAC / 4 Ref Frames
Format settings, CABAC                   : Yes
Format settings, Reference frames        : 4 frames
Codec ID                                 : V_MPEG4/ISO/AVC
Duration                                 : 47 min 50 s
Bit rate mode                            : Variable
Bit rate                                 : 3 782 kb/s
Maximum bit rate                         : 20.0 Mb/s
Width                                    : 1 920 pixels
Height                                   : 1 080 pixels
Display aspect ratio                     : 16:9
Frame rate mode                          : Constant
Frame rate                               : 25.000 FPS
Color space                              : YUV
Chroma subsampling                       : 4:2:0
Bit depth                                : 8 bits
Scan type                                : Progressive
Bits/(Pixel*Frame)                       : 0.073
Stream size                              : 1.26 GiB (77%)
Writing library                          : core 148 r2722 1b0121b
Encoding settings                        : cabac=1 / ref=4 / deblock=1:0:0 / analyse=0x3:0x111 / me=umh / subme=10 / psy=1 / psy_rd=1.00:0.00 / mixed_ref=1 / me_range=120 / chroma_me=1 / trellis=2 / 8x8dct=1 / cqm=0 / deadzone=21,11 / fast_pskip=1 / chroma_qp_offset=-2 / threads=6 / lookahead_threads=1 / sliced_threads=0 / nr=0 / decimate=1 / interlaced=0 / bluray_compat=0 / stitchable=1 / constrained_intra=0 / bframes=16 / b_pyramid=2 / b_adapt=2 / b_bias=0 / direct=3 / weightb=1 / open_gop=0 / weightp=2 / keyint=250 / keyint_min=126 / scenecut=0 / intra_refresh=0 / rc_lookahead=250 / rc=crf / mbtree=1 / crf=18.0 / qcomp=0.50 / qpmin=6 / qpmax=51 / qpstep=4 / vbv_maxrate=20000 / vbv_bufsize=25000 / crf_max=0.0 / nal_hrd=vbr / filler=0 / ip_ratio=1.40 / aq=1:0.80
Language                                 : English
Default                                  : Yes
Forced                                   : No

Audio #1
ID                                       : 2
Format                                   : AC-3
Format/Info                              : Audio Coding 3
Commercial name                          : Dolby Digital
Codec ID                                 : A_AC3
Duration                                 : 47 min 52 s
Bit rate mode                            : Constant
Bit rate                                 : 384 kb/s
Channel(s)                               : 6 channels
Channel layout                           : L R C LFE Ls Rs
Sampling rate                            : 48.0 kHz
Frame rate                               : 31.250 FPS (1536 SPF)
Compression mode                         : Lossy
Stream size                              : 131 MiB (8%)
Language                                 : Ukrainian
Service kind                             : Complete Main
Default                                  : Yes
Forced                                   : Yes

Audio #2
ID                                       : 3
Format                                   : E-AC-3 JOC
Format/Info                              : Enhanced AC-3 with Joint Object Coding
Commercial name                          : Dolby Digital Plus with Dolby Atmos
Codec ID                                 : A_EAC3
Duration                                 : 47 min 52 s
Bit rate mode                            : Constant
Bit rate                                 : 768 kb/s
Channel(s)                               : 6 channels
Channel layout                           : L R C LFE Ls Rs
Sampling rate                            : 48.0 kHz
Frame rate                               : 31.250 FPS (1536 SPF)
Compression mode                         : Lossy
Stream size                              : 263 MiB (16%)
Language                                 : English
Service kind                             : Complete Main
Default                                  : No
Forced                                   : No
Complexity index                         : 16
Number of dynamic objects                : 15
Bed channel count                        : 1 channel
Bed channel configuration                : LFE

Text #1
ID                                       : 4
Format                                   : UTF-8
Codec ID                                 : S_TEXT/UTF8
Codec ID/Info                            : UTF-8 Plain Text
Duration                                 : 46 min 54 s
Bit rate                                 : 64 b/s
Count of elements                        : 712
Stream size                              : 22.0 KiB (0%)
Language                                 : Czech
Default                                  : No
Forced                                   : No

Text #2
ID                                       : 5
Format                                   : UTF-8
Codec ID                                 : S_TEXT/UTF8
Codec ID/Info                            : UTF-8 Plain Text
Duration                                 : 46 min 54 s
Bit rate                                 : 65 b/s
Count of elements                        : 632
Stream size                              : 22.6 KiB (0%)
Language                                 : Danish
Default                                  : No
Forced                                   : No

Text #3
ID                                       : 6
Format                                   : UTF-8
Codec ID                                 : S_TEXT/UTF8
Codec ID/Info                            : UTF-8 Plain Text
Duration                                 : 46 min 54 s
Bit rate                                 : 64 b/s
Count of elements                        : 662
Stream size                              : 22.1 KiB (0%)
Language                                 : German
Default                                  : No
Forced                                   : No

Text #4
ID                                       : 7
Format                                   : UTF-8
Codec ID                                 : S_TEXT/UTF8
Codec ID/Info                            : UTF-8 Plain Text
Duration                                 : 45 min 48 s
Bit rate                                 : 126 b/s
Count of elements                        : 708
Stream size                              : 42.4 KiB (0%)
Language                                 : Greek
Default                                  : No
Forced                                   : No

Text #5
ID                                       : 8
Format                                   : UTF-8
Codec ID                                 : S_TEXT/UTF8
Codec ID/Info                            : UTF-8 Plain Text
Duration                                 : 46 min 54 s
Bit rate                                 : 70 b/s
Count of elements                        : 707
Stream size                              : 24.2 KiB (0%)
Language                                 : Spanish
Default                                  : No
Forced                                   : No

Text #6
ID                                       : 9
Format                                   : UTF-8
Codec ID                                 : S_TEXT/UTF8
Codec ID/Info                            : UTF-8 Plain Text
Duration                                 : 46 min 57 s
Bit rate                                 : 65 b/s
Count of elements                        : 696
Stream size                              : 22.4 KiB (0%)
Language                                 : Spanish
Default                                  : No
Forced                                   : No

Text #7
ID                                       : 10
Format                                   : UTF-8
Codec ID                                 : S_TEXT/UTF8
Codec ID/Info                            : UTF-8 Plain Text
Duration                                 : 46 min 54 s
Bit rate                                 : 67 b/s
Count of elements                        : 633
Stream size                              : 23.1 KiB (0%)
Language                                 : Finnish
Default                                  : No
Forced                                   : No

Text #8
ID                                       : 11
Format                                   : UTF-8
Codec ID                                 : S_TEXT/UTF8
Codec ID/Info                            : UTF-8 Plain Text
Duration                                 : 46 min 54 s
Bit rate                                 : 62 b/s
Count of elements                        : 712
Stream size                              : 21.6 KiB (0%)
Language                                 : French
Default                                  : No
Forced                                   : No

Text #9
ID                                       : 12
Format                                   : UTF-8
Codec ID                                 : S_TEXT/UTF8
Codec ID/Info                            : UTF-8 Plain Text
Duration                                 : 46 min 54 s
Bit rate                                 : 58 b/s
Count of elements                        : 712
Stream size                              : 20.0 KiB (0%)
Default                                  : No
Forced                                   : No

Text #10
ID                                       : 13
Format                                   : UTF-8
Codec ID                                 : S_TEXT/UTF8
Codec ID/Info                            : UTF-8 Plain Text
Duration                                 : 46 min 54 s
Bit rate                                 : 61 b/s
Count of elements                        : 712
Stream size                              : 21.1 KiB (0%)
Language                                 : Hungarian
Default                                  : No
Forced                                   : No

Text #11
ID                                       : 14
Format                                   : UTF-8
Codec ID                                 : S_TEXT/UTF8
Codec ID/Info                            : UTF-8 Plain Text
Duration                                 : 46 min 54 s
Bit rate                                 : 62 b/s
Count of elements                        : 712
Stream size                              : 21.6 KiB (0%)
Language                                 : Indonesian
Default                                  : No
Forced                                   : No

Text #12
ID                                       : 15
Format                                   : UTF-8
Codec ID                                 : S_TEXT/UTF8
Codec ID/Info                            : UTF-8 Plain Text
Duration                                 : 46 min 54 s
Bit rate                                 : 67 b/s
Count of elements                        : 712
Stream size                              : 23.3 KiB (0%)
Language                                 : Italian
Default                                  : No
Forced                                   : No

Text #13
ID                                       : 16
Format                                   : UTF-8
Codec ID                                 : S_TEXT/UTF8
Codec ID/Info                            : UTF-8 Plain Text
Duration                                 : 46 min 54 s
Bit rate                                 : 63 b/s
Count of elements                        : 678
Stream size                              : 21.9 KiB (0%)
Default                                  : No
Forced                                   : No

Text #14
ID                                       : 17
Format                                   : UTF-8
Codec ID                                 : S_TEXT/UTF8
Codec ID/Info                            : UTF-8 Plain Text
Duration                                 : 46 min 54 s
Bit rate                                 : 69 b/s
Count of elements                        : 632
Stream size                              : 23.8 KiB (0%)
Language                                 : Norwegian
Default                                  : No
Forced                                   : No

Text #15
ID                                       : 18
Format                                   : UTF-8
Codec ID                                 : S_TEXT/UTF8
Codec ID/Info                            : UTF-8 Plain Text
Duration                                 : 46 min 54 s
Bit rate                                 : 65 b/s
Count of elements                        : 627
Stream size                              : 22.4 KiB (0%)
Language                                 : Dutch
Default                                  : No
Forced                                   : No

Text #16
ID                                       : 19
Format                                   : UTF-8
Codec ID                                 : S_TEXT/UTF8
Codec ID/Info                            : UTF-8 Plain Text
Duration                                 : 46 min 54 s
Bit rate                                 : 56 b/s
Count of elements                        : 712
Stream size                              : 19.5 KiB (0%)
Language                                 : Polish
Default                                  : No
Forced                                   : No

Text #17
ID                                       : 20
Format                                   : UTF-8
Codec ID                                 : S_TEXT/UTF8
Codec ID/Info                            : UTF-8 Plain Text
Duration                                 : 46 min 54 s
Bit rate                                 : 63 b/s
Count of elements                        : 712
Stream size                              : 21.7 KiB (0%)
Language                                 : Portuguese
Default                                  : No
Forced                                   : No

Text #18
ID                                       : 21
Format                                   : UTF-8
Codec ID                                 : S_TEXT/UTF8
Codec ID/Info                            : UTF-8 Plain Text
Duration                                 : 46 min 54 s
Bit rate                                 : 66 b/s
Count of elements                        : 712
Stream size                              : 22.8 KiB (0%)
Language                                 : Portuguese
Default                                  : No
Forced                                   : No

Text #19
ID                                       : 22
Format                                   : UTF-8
Codec ID                                 : S_TEXT/UTF8
Codec ID/Info                            : UTF-8 Plain Text
Duration                                 : 46 min 54 s
Bit rate                                 : 69 b/s
Count of elements                        : 632
Stream size                              : 23.8 KiB (0%)
Language                                 : Swedish
Default                                  : No
Forced                                   : No

Text #20
ID                                       : 23
Format                                   : UTF-8
Codec ID                                 : S_TEXT/UTF8
Codec ID/Info                            : UTF-8 Plain Text
Duration                                 : 46 min 54 s
Bit rate                                 : 69 b/s
Count of elements                        : 695
Stream size                              : 24.0 KiB (0%)
Language                                 : Turkish
Default                                  : No
Forced                                   : No

Text #21
ID                                       : 24
Format                                   : UTF-8
Codec ID                                 : S_TEXT/UTF8
Codec ID/Info                            : UTF-8 Plain Text
Duration                                 : 45 min 46 s
Bit rate                                 : 77 b/s
Count of elements                        : 767
Stream size                              : 25.9 KiB (0%)
Language                                 : English
Default                                  : No
Forced                                   : No

Text #22
ID                                       : 25
Format                                   : UTF-8
Codec ID                                 : S_TEXT/UTF8
Codec ID/Info                            : UTF-8 Plain Text
Duration                                 : 45 min 46 s
Bit rate                                 : 77 b/s
Count of elements                        : 767
Stream size                              : 25.9 KiB (0%)
Language                                 : English
Default                                  : Yes
Forced                                   : No

Скріншоти



Джерело:


Авторський реліз (завантажувати можна без реєстрації)
 Трекер:    Зареєстрований   

Завантажити / скачати серіал українською



відео для новачків



 Зареєстрований:   2020-09-27 15:37
 Розмір:   7.54 GB 
 Оцінка серіалу:   10/10 (Голосів: 4)
   
mrgalser 
Частий відвідувач


З нами з: 19.12.18
Востаннє: 30.11.20
Повідомлень: 40

2020-09-27 19:35  
Ваш часовий пояс: GMT + 2 Години

Нова тема   Відповісти