Ліга Європи УЄФА 2020-21 / UEFA Europa League / 03. Round / Ріека (Хорватія) - Колос (Україна) / Rijeka vs FC Kolos Kovalivka (24.09.2020) 720p UKR

Нові коментарі

Нова тема   Відповісти
Останній раз роздавалося antik_2008 (2020-10-23)
Автор Повідомлення
Anonymous 







2020-09-27 13:22  
Ліга Європи УЄФА 2020-21 / UEFA Europa League / 03. Round / Ріека (Хорватія) - Колос (Україна) / Rijeka vs FC Kolos Kovalivka (24.09.2020) 720p UKR

Ліга Європи УЄФА 2020-21 / UEFA Europa League / 03. Round / Ріека (Хорватія) - Колос (Україна) / Rijeka vs FC Kolos Kovalivka (24.09.2020) 720p UKR


Телеканал: Футбол 2
Опис:
Ліга Європи УЄФА 2020-21 / UEFA Europa League / 03. Round / Ріека (Хорватія) - Колос (Україна) / Rijeka vs FC Kolos Kovalivka (24.09.2020)
Тривалість:
02:24:37
Якість: 720p
Відео:
кодек:
розмір кадру: 1280x720
бітрейт: 3400 кб/с

Аудіо:
мова: українська
переклад: двоголосий закадровий | Круторогов Кирило Ігорович | Дмиттро Шпірко |
кодек: 2.0
бітрейт: 128 кб/с
Склади:




Скріншоти




Info
Код:

General
Complete name                            : UEL_2020.21_Qual.03_Rijeka_vs_FC_Kolos_Kovalivka (24.09.2020) 720p.50_UKR.
Format                                   :
Format version                           : Version 4
File size                                : 3.68 GiB
Duration                                 : 2 h 24 min
Overall bit rate                         : 3 639 kb/s
Writing application                      : VideoReDo (Lavf56.25.101)
Writing library                          : VideoReDo (Lavf56.25.101)

Video
ID                                       : 1
Format                                   : AVC
Format/Info                              : Advanced Video Codec
Format profile                           : [email protected]
Format settings                          : CABAC / 4 Ref Frames
Format settings, CABAC                   : Yes
Format settings, RefFrames               : 4 frames
Codec ID                                 : V_MPEG4/ISO/AVC
Duration                                 : 2 h 24 min
Bit rate                                 : 3 439 kb/s
Width                                    : 1 280 pixels
Height                                   : 720 pixels
Display aspect ratio                     : 16:9
Frame rate mode                          : Constant
Frame rate                               : 50.000 FPS
Color space                              : YUV
Chroma subsampling                       : 4:2:0
Bit depth                                : 8 bits
Scan type                                : Progressive
Bits/(Pixel*Frame)                       : 0.075
Stream size                              : 3.47 GiB (94%)
Default                                  : No
Forced                                   : No

Audio
ID                                       : 2
Format                                   : AC-3
Format/Info                              : Audio Coding 3
Commercial name                          : Dolby Digital
Codec ID                                 : A_AC3
Duration                                 : 2 h 24 min
Bit rate mode                            : Constant
Bit rate                                 : 128 kb/s
Channel(s)                               : 2 channels
Channel layout                           : L R
Sampling rate                            : 48.0 kHz
Frame rate                               : 31.250 FPS (1536 SPF)
Bit depth                                : 16 bits
Compression mode                         : Lossy
Stream size                              : 132 MiB (4%)
Language                                 : Ukrainian
Service kind                             : Complete Main
Default                                  : Yes
Forced                                   : No
Подяка за допомогу у створенні релізу : rgfootball
Особиста оцінка: 6 - третій сорт - не брак


Бронзовий реліз (на рейтинг впливає 75% завантаженого)
 Трекер:    Зареєстрований   

Завантажити / скачати торрент



відео для новачків



 Зареєстрований:   2020-09-27 13:22
 Розмір:   3.68 GB 
 Оцінка:   9.5/10 (Голосів: 2)
   
pavlo-kyiv 
Частий відвідувач


З нами з: 01.05.16
Востаннє: 22.10.20
Повідомлень: 46

2020-09-30 10:57  
Київ сьогодні вболіває за "Колос"!!!
Ваш часовий пояс: GMT + 2 Години

Нова тема   Відповісти