Ворог усередині (Сезон 1) / The Enemy Within (Season 1) (2019) 1080p Ukr/Eng | sub Eng

Нові коментарі

Нова тема   Відповісти
Автор Повідомлення
Anonymous 







2020-09-27 01:45  
Ворог усередині (Сезон 1) / The Enemy Within (Season 1) (2019) 1080p Ukr/Eng | sub Eng

Ворог усередині (Сезон 1) / The Enemy Within (Season 1) (2019) 1080p Ukr/Eng | sub Eng


Жанр: драма, кримінальний
Країна: США



Кінокомпанія: 82nd West, Universal Television / NBC
Режисер: Чарльз Бісон, Річард Джей Льюїс, Марк Пеллінгтон
Актори: Дженніфер Карпентер, Морріс Честнат, Кассандра Фрімен, Джеймс Карпінелло, Раза Джеффрі, Келлі Гарнер, Ноа Бін, Ной Міллс, Раший Хелпер, Ханна Д. Скотт, Кайлі Вернофф, Дейл Павінскі, Білл Койн, Джон Фінн, Ліріка Окано, Флоренція Лозано

Сюжет:
Сюжет американського драматичного серіалу «Ворог усередині» розгортається навколо жінки на ім'я Еріка Шепард. У минулому вона була одним з кращих агентів ЦРУ, яка згодом стала найвідомішою зрадницею батьківщини в історії США. Тепер колишній агент Центрального розвідувального управління відбуває довічний термін у в'язниці суворого режиму. Здавалося б, тут Еріка проведе залишок своїх днів. Але одного разу до неї за допомогою звертається агент ФБР Вілл Кітон, який розслідує справу небезпечного і невловимого злочинця. І хоча він абсолютно не довіряє Еріці - у нього просто немає іншого вибору. Справа в тому, що вона чудово знає розшукуваного злочинця. Тому Еріка дійсно може допомогти в розслідуванні. Однак для того, щоб ця справа увінчалася успіхом, агентам доведеться об'єднатися...


Тривалість: 1 серія: ~ 45 хв. (цілком серій: 13)
Перелік серій
01 - Pilot
02 - Black Bear
03 - The Ambassador's Wife
04 - Confessions
05 - Havana
06 - Eye of Horus
07 - Decoded
08 - An Offer
09 - Homecoming
10 - Chigorin
11 - The Embassy
12 - Sequestered
13 - Sierra Maestra
Якість:
Відео:
кодек:
розмір кадру: 1920 x 1080
бітрейт: 9486 кб/с

Аудіо # 1:
мова: українська
переклад: багатоголосий закадровий
кодек: 5.1 (серії 1-3), 2.0 (серії 4-13)
бітрейт: 384 кб/с (серії 1-3), 192 кб/с (серії 4-13)

Аудіо # 2:
мова: англійська
переклад: оригінал
кодек: 5.1
бітрейт: 640 кб/с

Джерело озвучення:
DniproFilm

Субтитри:
мова: англійська (SDH)
тип: програмні (м'які)
формат: *.srt
Info
Код:
General
Unique ID                                : 190431216808218792512850922626502986410 (0x8F43B7E12DC0D7295FAE6D09B50D8AAA)
Complete name                            : The Enemy Within S01E01 (2019) 1080p [Ukr_Eng] [Hurtom].
Format                                   :
Format version                           : Version 4
File size                                : 3.21 GiB
Duration                                 : 43 min 42 s
Overall bit rate                         : 10.5 Mb/s
Movie name                               : Ворог усередині (Сезон 1, серія 1) (2019)
Encoded date                             : UTC 2020-09-25 23:35:32
Writing application                      : v50.0.0 ('Awakenings') 64-bit
Writing library                          : libebml v1.4.0 + v1.6.2
Cover                                    : Yes
Attachments                              : cover.jpg

Video
ID                                       : 1
Format                                   : AVC
Format/Info                              : Advanced Video Codec
Format profile                           : [email protected]
Format settings                          : CABAC / 4 Ref Frames
Format settings, CABAC                   : Yes
Format settings, Reference frames        : 4 frames
Codec ID                                 : V_MPEG4/ISO/AVC
Duration                                 : 43 min 42 s
Bit rate mode                            : Constant
Bit rate                                 : 9 486 kb/s
Nominal bit rate                         : 10 000 kb/s
Width                                    : 1 920 pixels
Height                                   : 1 080 pixels
Display aspect ratio                     : 16:9
Frame rate mode                          : Constant
Frame rate                               : 23.976 (24000/1001) FPS
Color space                              : YUV
Chroma subsampling                       : 4:2:0
Bit depth                                : 8 bits
Scan type                                : Progressive
Bits/(Pixel*Frame)                       : 0.191
Stream size                              : 2.90 GiB (90%)
Language                                 : English
Default                                  : Yes
Forced                                   : No
Color range                              : Limited
Color primaries                          : BT.709
Transfer characteristics                 : BT.709
Matrix coefficients                      : BT.709

Audio #1
ID                                       : 2
Format                                   : AC-3
Format/Info                              : Audio Coding 3
Commercial name                          : Dolby Digital
Codec ID                                 : A_AC3
Duration                                 : 43 min 41 s
Bit rate mode                            : Constant
Bit rate                                 : 384 kb/s
Channel(s)                               : 6 channels
Channel layout                           : L R C LFE Ls Rs
Sampling rate                            : 48.0 kHz
Frame rate                               : 31.250 FPS (1536 SPF)
Compression mode                         : Lossy
Stream size                              : 120 MiB (4%)
Language                                 : Ukrainian
Service kind                             : Complete Main
Default                                  : Yes
Forced                                   : Yes

Audio #2
ID                                       : 3
Format                                   : E-AC-3
Format/Info                              : Enhanced AC-3
Commercial name                          : Dolby Digital Plus
Codec ID                                 : A_EAC3
Duration                                 : 43 min 42 s
Bit rate mode                            : Constant
Bit rate                                 : 640 kb/s
Channel(s)                               : 6 channels
Channel layout                           : L R C LFE Ls Rs
Sampling rate                            : 48.0 kHz
Frame rate                               : 31.250 FPS (1536 SPF)
Compression mode                         : Lossy
Stream size                              : 200 MiB (6%)
Language                                 : English
Service kind                             : Complete Main
Default                                  : No
Forced                                   : No

Text
ID                                       : 4
Format                                   : UTF-8
Codec ID                                 : S_TEXT/UTF8
Codec ID/Info                            : UTF-8 Plain Text
Duration                                 : 43 min 8 s
Bit rate                                 : 72 b/s
Count of elements                        : 820
Stream size                              : 22.8 KiB (0%)
Title                                    : SDH
Language                                 : English
Default                                  : No
Forced                                   : No

Скріншоти












Джерело:


Авторський реліз (завантажувати можна без реєстрації)
 Трекер:    Зареєстрований   

Завантажити / скачати серіал українською



відео для новачків



 Зареєстрований:   2020-09-27 01:45
 Розмір:   40.09 GB 
 Оцінка серіалу:   10/10 (Голосів: 5)
   
Ваш часовий пояс: GMT + 2 Години

Нова тема   Відповісти