Формула 1. Сезон 2020. Етап 10. Гран-Прі сусідньої країни. Кваліфікація (26.09.2020) 1080p 50fps Ukr/Eng/Int

Нові коментарі

Нова тема   Відповісти
Автор Повідомлення
sergiyko.5 
VIP


З нами з: 25.02.16
Востаннє: 29.10.20
Повідомлень: 3647

2020-09-26 16:20  
Формула 1. Сезон 2020. Етап 10. Гран-Прі сусідньої країни. Кваліфікація (26.09.2020) 1080p 50fps Ukr/Eng/Int


Формула 1. Сезон 2020. Етап 10. Гран-Прі сусідньої країни. Кваліфікація (26.09.2020) 1080p 50fps Ukr/Eng/Int

Жанр: Перегони Формули 1
Країна: росія
Телеканал: Sky Sports F1
Коментар: Максим Подзігун, англійською

Опис:
Кваліфікація десятого етапу Гран-Прі россії 2020 року.


Якість:

Відео: кодек: розмір кадру: 1920 х 1080 бітрейт: 8000 кб/с 50 кад/с
Аудіо 1: мова: українська кодек: 2.0 бітрейт: 192 кб/с
Аудіо 2: мова: англійська кодек: 5.1 бітрейт: 384 кб/с
Аудіо 3: мова: - кодек: MP2 2.0 бітрейт: 128 кб/с
Тривалість:
01:25:44
Про файл:
General
Unique ID : 150169274573309054752743608381800276573 (0x70F98CDE054196685C5C8033F1B5625D)
Complete name : D:\Documents\Torrents\SPORT\Formula 1\F1.2020.10.russia.Qualifying.1080p..Ukr.Eng.Int.
Format :
Format version : Version 4
File size : 5.36 GiB
Duration : 1 h 25 min
Overall bit rate : 8 945 kb/s
Encoded date : UTC 2020-09-26 16:14:40
Writing application : v49.0.0 ('Sick Of Losing Soulmates') 64-bit
Writing library : libebml v1.4.0 + v1.6.1

Video
ID : 1
Format : AVC
Format/Info : Advanced Video Codec
Format profile : [email protected]
Format settings : CABAC / 4 Ref Frames
Format settings, CABAC : Yes
Format settings, Reference : 4 frames
Codec ID : V_MPEG4/ISO/AVC
Duration : 1 h 25 min
Bit rate : 8 237 kb/s
Width : 1 920 pixels
Height : 1 080 pixels
Display aspect ratio : 16:9
Frame rate mode : Constant
Frame rate : 50.000 FPS
Color space : YUV
Chroma subsampling : 4:2:0
Bit depth : 8 bits
Scan type : Progressive
Bits/(Pixel*Frame) : 0.079
Stream size : 4.93 GiB (92%)
Title : Sky Sports F1
Writing library : core 157 r2935M 545de2f
Encoding settings : cabac=1 / ref=4 / deblock=1:-3:-3 / analyse=0x3:0x113 / me=umh / subme=9 / psy=1 / psy_rd=1.00:0.15 / mixed_ref=1 / me_range=24 / chroma_me=1 / trellis=1 / 8x8dct=1 / cqm=0 / deadzone=21,11 / fast_pskip=1 / chroma_qp_offset=-3 / threads=64 / lookahead_threads=7 / sliced_threads=0 / nr=0 / decimate=1 / interlaced=0 / bluray_compat=0 / constrained_intra=0 / bframes=6 / b_pyramid=2 / b_adapt=2 / b_bias=0 / direct=1 / weightb=1 / open_gop=0 / weightp=2 / keyint=250 / keyint_min=25 / scenecut=40 / intra_refresh=0 / rc_lookahead=40 / rc=crf / mbtree=1 / crf=20.9 / qcomp=0.60 / qpmin=0 / qpmax=69 / qpstep=4 / ip_ratio=1.40 / aq=3:0.80
Language : English
Default : Yes
Forced : No

Audio #1
ID : 2
Format : LC
Format/Info : Advanced Audio Codec Low Complexity
Codec ID : A_AAC-2
Duration : 1 h 25 min
Bit rate : 192 kb/s
Channel(s) : 2 channels
Channel layout : L R
Sampling rate : 48.0 kHz
Frame rate : 46.875 FPS (1024 SPF)
Compression mode : Lossy
Delay relative to video : -31 ms
Stream size : 118 MiB (2%)
Title : Максим Подзігун
Language : Ukrainian
Default : Yes
Forced : Yes

Audio #2
ID : 3
Format : AC-3
Format/Info : Audio Coding 3
Commercial name : Dolby Digital
Codec ID : A_AC3
Duration : 1 h 25 min
Bit rate mode : Constant
Bit rate : 384 kb/s
Channel(s) : 6 channels
Channel layout : L R C LFE Ls Rs
Sampling rate : 48.0 kHz
Frame rate : 31.250 FPS (1536 SPF)
Compression mode : Lossy
Delay relative to video : 1 s 300 ms
Stream size : 235 MiB (4%)
Title : Sky Sports F1
Language : English
Service kind : Complete Main
Default : No
Forced : No

Audio #3
ID : 4
Format : MPEG Audio
Format version : Version 1
Format profile : Layer 2
Codec ID : A_MPEG/L2
Codec ID/Hint : MP2
Duration : 1 h 25 min
Bit rate mode : Constant
Bit rate : 128 kb/s
Channel(s) : 2 channels
Sampling rate : 48.0 kHz
Frame rate : 41.667 FPS (1152 SPF)
Compression mode : Lossy
Delay relative to video : -40 ms
Stream size : 78.5 MiB (1%)
Title : Int
Default : No
Forced : No
Скріншоти:


Запис/зведення: sergiyko



 Трекер:    Зареєстрований   

Завантажити / скачати торрент



відео для новачків



 Зареєстрований:   2020-09-26 18:20
 Розмір:   5.36 GB 
 Оцінка:   9.9/10 (Голосів: 14)
   
zsl2008 
Новенький


З нами з: 21.01.12
Востаннє: 25.10.20
Повідомлень: 2

2020-09-26 16:37  
Дякую !
tarasik24 
Попереджень: 1
Попереджень: 1 


З нами з: 25.03.17
Востаннє: 28.10.20
Повідомлень: 5

2020-09-26 17:39  
Не коректно писати "сусідньої країни" тому що, Україна не тільки має одного сусіда, це по-перше не повага до країн-сусідів , а по-друге до Формули 1.
sergiyko.5 
VIP


З нами з: 25.02.16
Востаннє: 29.10.20
Повідомлень: 3647

2020-09-26 18:22  
tarasik24
А в мене немає поваги до московії. Не подобається йди звідси.

Додано через 2 хвилини 6 секунд:

Торент зроблено не коректно, через помилки в відео йде 12 розсинхрон на всіх доріжках. Ситуацію буде виправлено.

Додано через 32 хвилини 16 секунд:

Торент виправлено.

misamisk 
Частий відвідувач


З нами з: 16.10.17
Востаннє: 28.10.20
Повідомлень: 35

2020-09-26 18:50  
Дякую за реліз, чекаємо на гонку!
svyatik1989 
Новенький


З нами з: 28.07.19
Востаннє: 26.09.20
Повідомлень: 1

2020-09-26 20:11  
Дякую!
tarasik24 
Попереджень: 1
Попереджень: 1 


З нами з: 25.03.17
Востаннє: 28.10.20
Повідомлень: 5

2020-09-26 21:18  
sergiyko.5
Краще слідкував би за роздачами

( ͡° ͜ʖ ͡°) 
Новенький


З нами з: 02.06.20
Востаннє: 28.10.20
Повідомлень: 5

2020-09-26 21:24  
підаrasik
може ви припините вказувати людям, що треба робити? І зробиш сам потрібне.

tarasik24 
Попереджень: 1
Попереджень: 1 


З нами з: 25.03.17
Востаннє: 28.10.20
Повідомлень: 5

2020-09-26 22:11  
( ͡° ͜ʖ ͡°)
не підарасік, а тарасік
пиздуй нахуй



2.2 Проявляти неповагу (використовуючи грубість, погрози, образи чи нецензурні вислови, в тому числі в завуальованій формі) 2.9 Використовувати форум для обговорення поза темою, видано antik_2008
( ͡° ͜ʖ ͡°) 
Новенький


З нами з: 02.06.20
Востаннє: 28.10.20
Повідомлень: 5

2020-09-26 22:14  
tarasik24 написано:

( ͡° ͜ʖ ͡°)
не підарасік, а тарасік
пиздуй нахуй

Як тебе шлють?

vadYOsa 
Новенький


З нами з: 04.04.12
Востаннє: 25.10.20
Повідомлень: 5

2020-09-26 22:57  
sergiyko.5
Круто названо етап, і це ще м'яко)) Дякую за роздачу!
А на цих розумників чи то з ворожої країни, чи то просто недалеких по життю не звертайте уваги. Складається враження, що то друзі Подзігуна. Дуже він став політкоректним останніми роками...

З приводу якості саме даної квали - щось не так, відео постійно гальмує і слайдить, звук кожних секунд 20 переривається на секунду... (( Задоволення від перегляду сходить нанівець.. ((( В чому може бути справа? Система повністю справна, з іншими відео все ОК. Так пережато?

sergiyko.5 
VIP


З нами з: 25.02.16
Востаннє: 29.10.20
Повідомлень: 3647

2020-09-27 12:47  
vadYOsa написано:
відео постійно гальмує і слайдить, звук кожних секунд 20 переривається на секунду


Відео має 1080p 50fps 8Mbps, пристрій може не справлятися. В мене недорога приставка відтворює нормально, як і потужний комп, а телевізор 2009 року з флешки відтворює лише звук.

Але якби там не було, я не може підлаштуватися під кожного користувача. Відео 25fps, яке я беру постійно для своїх релізів, цього разу було пошкодженим. Взяв запис 50fps зі Sky Sports.

vadYOsa 
Новенький


З нами з: 04.04.12
Востаннє: 25.10.20
Повідомлень: 5

2020-09-27 14:50  
sergiyko.5 написано:

Відео має 1080p 50fps 8Mbps, пристрій може не справлятися. В мене недорога приставка відтворює нормально, як і потужний комп, а телевізор 2009 року з флешки відтворює лише звук.

Але якби там не було, я не може підлаштуватися під кожного користувача. Відео 25fps, яке я беру постійно для своїх релізів, цього разу було пошкодженим. Взяв запис 50fps зі Sky Sports.


Дякую за відповідь. Що цікаве, що не справлялись з відео плеєри LA та Media Classic, а от стандартний Windows Media - єдиний, який тягнув без проблем. Але ж там така незручна навігація... ((
Взагалі комп в мене без проблем тягнув набагато більші відео того ж Shewa1 з 50fps, чому тут така проблема трапилась - не розумію, усі кодеки на місці. Сподіваюсь, з гонкою проблем не буде Wink (1)

P.S. Написав звернення на ФАУ стосовно ворожих триколорів під час трансляції ГП сусідньої держави з написом назви українського міста Севастополь на одному з них. Виклав би тут його зміст, але напевно це заборонено правилами форума. Дивно, що Макс на це ніяк не відреагував... політкоректний...

vladimir_zyazin 
Новенький


З нами з: 28.09.20
Востаннє: 26.10.20
Повідомлень: 1

2020-09-28 09:54  
Дякую!
Richi 
Поважний учасник


З нами з: 06.12.07
Востаннє: 13.10.20
Повідомлень: 181

2020-10-13 19:42  
vadYOsa
взагалі Подзигун перший почав так називати це ГП

Umbrella.Corps 
Свій


З нами з: 09.04.17
Востаннє: 28.10.20
Повідомлень: 61

2020-10-24 18:01  
Квали португалії не буде?
sergiyko.5 
VIP


З нами з: 25.02.16
Востаннє: 29.10.20
Повідомлень: 3647

2020-10-24 18:32  
Маю проблеми, не приймається платіж на петріоні.
yuri1978 
Новенький


З нами з: 07.09.19
Востаннє: 25.10.20
Повідомлень: 1

2020-10-24 19:30  
та давай вже зі скаю.
хай йому грець, тому патреону - зробимо improve англійській )

Ваш часовий пояс: GMT + 2 Години

Нова тема   Відповісти