Суперкубок УЄФА 2020/21 | Баварія - Севілья | Футбол 3 (24.09.2020)

Нові коментарі

Нова тема   Відповісти
Автор Повідомлення
misamisk 
Частий відвідувач


З нами з: 16.10.17
Востаннє: 30.10.20
Повідомлень: 35

2020-09-25 17:03  
Суперкубок УЄФА 2020/21 | Баварія - Севілья | Футбол 3 (24.09.2020)

Суперкубок УЄФА 2020/21 | Баварія - Севілья | Футбол 3 (24.09.2020)


Телеканал: Футбол 3
Опис:
Матч відбувся 24 вересня 2020 року в Будапешті на Пушкаш Арені. Цей матч став першим матчем під егідою UEFA від початку пандемії COVID-19, на якому були присутні вболівальники. Їх кількість склала 15,180

Матч обслуговували:
Рефері: Ентоні Тейлор (Англія)
Асистенти рефері: Гаррі Безвік, Адам Нанн (Англія)
Четвертий суддя: Орел Грінфілд (Ізраїль)
VAR: Стюарт Атвелл (Англія)
Асистент VAR: Пол Тірні (Англія)

Коментатори: Владислав Шалота та Андрій Столярчук


Тривалість: 02:44:07
Якість:
Відео:
кодек:
розмір кадру: 1280 x 720
бітрейт: 4000 кб/с

Аудіо:
мова: українська
кодек: 2.0
бітрейт: 320 кб/с
Info
General
Unique ID : 64849496981435809141746029686601778697 (0x30C98F0E453BCAB1E28A7C7F727F8609)
Complete name : UEFA.Super.Cup.Bayern-Sevilla.24.09.2020..720p.
Format :
Format version : Version 4
File size : 4.95 GiB
Duration : 2 h 44 min
Overall bit rate mode : Variable
Overall bit rate : 4 322 kb/s
Movie name : UEFA Super Cup-2020. Bayern - Sevilla
Encoded date : UTC 2020-09-25 14:20:23
Writing application : v24.0.0 ('Beyond The Pale') 64-bit
Writing library : libebml v1.3.6 + v1.4.9

Video
ID : 1
Format : AVC
Format/Info : Advanced Video Codec
Format profile : [email protected]
Format settings : CABAC / 2 Ref Frames
Format settings, CABAC : Yes
Format settings, Reference frames : 2 frames
Format settings, GOP : M=1, N=25
Codec ID : V_MPEG4/ISO/AVC
Duration : 2 h 44 min
Bit rate mode : Variable
Bit rate : 3 999 kb/s
Maximum bit rate : 768 kb/s
Width : 1 280 pixels
Height : 720 pixels
Display aspect ratio : 16:9
Frame rate mode : Constant
Frame rate : 29.970 (30000/1001) FPS
Original frame rate : 25.000 FPS
Color space : YUV
Chroma subsampling : 4:2:0
Bit depth : 8 bits
Scan type : Progressive
Bits/(Pixel*Frame) : 0.145
Stream size : 4.58 GiB (93%)
Title : UEFA Super Cup. FC Bayern Munich - Sevilla FC
Language : English
Default : Yes
Forced : No

Audio
ID : 2
Format : LC
Format/Info : Advanced Audio Codec Low Complexity
Codec ID : A_AAC-2
Duration : 2 h 44 min
Bit rate : 320 kb/s
Channel(s) : 2 channels
Channel layout : L R
Sampling rate : 44.1 kHz
Frame rate : 43.066 FPS (1024 SPF)
Compression mode : Lossy
Stream size : 376 MiB (7%)
Title : Commentaries by Vladislav Shavuta, Andriy Stoliarchuk
Language : Ukrainian
Default : Yes
Forced : No
Стартові склади
Скріншоти
Особиста оцінка: 10 - без зайвих вагань рекомендую всім!


 Трекер:    Зареєстрований   

Завантажити / скачати торрент



відео для новачків



 Зареєстрований:   2020-09-25 17:06
 Розмір:   4.95 GB 
 Оцінка:   10/10 (Голосів: 4)
   
Ваш часовий пояс: GMT + 2 Години

Нова тема   Відповісти