Щенячий патруль / PAW Patrol (Сезон 6, 15 серій з 26) (2019) 1080p

Нові коментарі

Нова тема   Відповісти
Автор Повідомлення
sergiyko.5 
Забанено
Забанено


З нами з: 25.02.16
Востаннє: 29.10.20
Повідомлень: 3648

2020-09-25 11:44  
Всі одноіменні релізи на трекері

Щенячий патруль / PAW Patrol (Сезон 6) (2019) 1080p


Щенячий патруль / PAW Patrol (Сезон 6, 15 серій з 26) (2019) 1080p

Жанр: дитячий, пригоди
Країна: Канада, США
Режисер: Кейт Чепмен

Сюжет:
"Щенячий патруль" - це цікава задумка, корисні поради та повчальні ситуації. Головний герой, Райдер, 12-ти річний хлопчик. У своєму такому ранньому віці він організував команду з порятунку. Вона складається з самого організатора, тільки тепер він уже керівник сімох щенят.

Райдер дивує людей своїм розумом і розвиненістю не по роках, так як він вже встиг успішно закінчити школу. Багатьом рисам характеру хлопчика варто повчитися: героїзм, відповідальність, доброта, людяність і це не повний список. Щоб патруль працював якомога оперативніше, Райдер забезпечив всією необхідною технікою. Наприклад, щенофоном, спеціально облаштованим пристроєм. Щоб придумати план, команда збирається разом.




Тривалість: 1 серія: 22:16 (цілком серій: 15 з 26)
Якість:

Відео: кодек: розмір кадру: 1920x1080 бітрейт: 4500 кб/с
Аудіо: мова: українська озвучення: професійне дубльоване кодек: AАС 2.0 бітрейт: 160 кб/с
Озвучення:
Перелік серій
01.Pups Save the Jungle Penguins-Pups Save a Freighter
02.U.R.Pups Stop a Meltdown-U.R.Pups and the Mystery of the Missing Cell Phones
03.Pups Save a Melon Festival-Pups Save a Cow
04.Pups Save the Honey-Pups Save Mayor Goodway's Purse
05.U.R.Pups Save the Mountain Climbers-U.R.Pups Save Captain Gordy
06.Pups and the Stinky Bubble Trouble-Pups Save the Baby Ostriches
07.Pups Save Gustavo's Guitar-Pups Save the Yoga Goats
08.Pups Save Bedtime-Pups Save Chickaletta's Egg
09.Mighty Pups, Super Paws.When Super Kitties Attack
10.Pups Save a Manatee-Pups Save Breakfast
11.Pups Save the Land Pirates-Pups Save the Birdwatching Turbots
12.Mighty Pups, Super Paws.Pups Meet the Mighty Twins
13.Pups Save a Freaky Pup Day-Pups Save a Runaway Mayor

15.Mighty Pups, Super Paws.Pups Save a Giant Chicken-Pups Stop Harold's Deep Freeze

18.Mighty Pups, Super Paws-Pups and the Big Twin Trick-Pups Save a Mega Mayor
Про файл:
General
Unique ID : 196255978120951233713485744147105556330 (0x93A586C8E37209EDD2557C9B9817A76A)
Complete name : D:\Documents\Torrents\FILMS\Paw Patrol S06 1080p \S06E01.Pups Save the Jungle Penguins-Pups Save a Freighter.1080p..
Format :
Format version : Version 4
File size : 753 MiB
Duration : 22 min 15 s
Overall bit rate : 4 729 kb/s
Movie name : Paw Patrol S06 1080p by sergiyko
Encoded date : UTC 2020-09-26 20:27:10
Writing application : v49.0.0 ('Sick Of Losing Soulmates') 64-bit
Writing library : libebml v1.4.0 + v1.6.1

Video
ID : 1
Format : AVC
Format/Info : Advanced Video Codec
Format profile : [email protected]
Format settings : CABAC / 4 Ref Frames
Format settings, CABAC : Yes
Format settings, Reference : 4 frames
Codec ID : V_MPEG4/ISO/AVC
Duration : 22 min 15 s
Bit rate : 4 566 kb/s
Width : 1 920 pixels
Height : 1 080 pixels
Display aspect ratio : 16:9
Frame rate mode : Constant
Frame rate : 25.000 FPS
Color space : YUV
Chroma subsampling : 4:2:0
Bit depth : 8 bits
Scan type : Progressive
Bits/(Pixel*Frame) : 0.088
Stream size : 727 MiB (97%)
Writing library : core 159
Encoding settings : cabac=1 / ref=4 / deblock=1:0:0 / analyse=0x3:0x133 / me=umh / subme=10 / psy=1 / psy_rd=1.00:0.00 / mixed_ref=1 / me_range=24 / chroma_me=1 / trellis=2 / 8x8dct=1 / cqm=0 / deadzone=21,11 / fast_pskip=1 / chroma_qp_offset=-2 / threads=24 / lookahead_threads=4 / sliced_threads=0 / nr=0 / decimate=1 / interlaced=0 / bluray_compat=0 / constrained_intra=0 / bframes=8 / b_pyramid=2 / b_adapt=2 / b_bias=0 / direct=3 / weightb=1 / open_gop=0 / weightp=2 / keyint=250 / keyint_min=25 / scenecut=40 / intra_refresh=0 / rc_lookahead=60 / rc=crf / mbtree=1 / crf=18.0 / qcomp=0.60 / qpmin=0 / qpmax=69 / qpstep=4 / ip_ratio=1.40 / aq=1:1.00
Language : English
Default : Yes
Forced : No

Audio
ID : 2
Format : LC
Format/Info : Advanced Audio Codec Low Complexity
Codec ID : A_AAC-2
Duration : 22 min 15 s
Bit rate : 160 kb/s
Channel(s) : 2 channels
Channel layout : L R
Sampling rate : 48.0 kHz
Frame rate : 46.875 FPS (1024 SPF)
Compression mode : Lossy
Stream size : 25.5 MiB (3%)
Language : Ukrainian
Default : Yes
Forced : No
Скріншоти:


Запис/ріп: sergiyko


Бронзовий реліз (на рейтинг впливає 75% завантаженого)
 Трекер:    Зареєстрований   

Завантажити / скачати мультфільм українською



відео для новачків



 Зареєстрований:   2020-10-03 15:25
 Розмір:   11.2 GB 
 Оцінка мультсеріалу:   9.8/10 (Голосів: 17)
   
sergiyko.5 
Забанено
Забанено


З нами з: 25.02.16
Востаннє: 29.10.20
Повідомлень: 3648

2020-09-26 23:33  
Торент оновлено. Перекодовано відео до оптимального розміру. Додав 12-13 серії.
sergiyko.5 
Забанено
Забанено


З нами з: 25.02.16
Востаннє: 29.10.20
Повідомлень: 3648

2020-10-03 15:36  
Додав 15,18 серії, канал почав повтор старих серій.
alexandr_b 
Частий відвідувач


З нами з: 11.03.09
Востаннє: 20.04.21
Повідомлень: 49

2020-10-19 22:02  
дякую.
Ваш часовий пояс: GMT + 2 Години

Нова тема   Відповісти