Кров і скарб (Сезон 1) / Blood and Treasure (Season 1) (2019) 1080p Ukr/Eng | sub Eng

Нові коментарі

Нова тема   Відповісти
Автор Повідомлення
Anonymous 







2020-09-24 15:47  
Кров і скарб (Сезон 1) / Blood and Treasure (Season 1) (2019) 1080p Ukr/Eng | sub Eng

Кров і скарб (Сезон 1) / Blood and Treasure (Season 1) (2019) 1080p Ukr/Eng | sub Eng
Український постер


Жанр: екшн, пригодницький
Країна: США



Кінокомпанія: Propagate, Lake June Productions, CBS Television Studios
Режисер: Гай Норман Бі, Стів Бойум, Голлі Дейл
Актори: Метт Барр, Софія Пернас, Катя Вінтер, Антоніо Цупо, Тоні Неш, Майкл Джеймс Шоу, Джеймс Келліс, Алісія Коппола, Карл Грабошас, Алі Хассан, Одед Фер, Мауріціо Терраццано, Стівен Богерт, Елдор Хантер, Хадсон Лебланк, Зак Сантьяго

Сюжет:
Сюжет американського пригодницького серіалу «Кров і скарб» розгортається навколо чоловіка на ім'я Денні Макнамара і чарівної дівчини, яку звуть Лексі Вазірі. Він – експерт з предметів старовини, який спеціалізується на пошуку древніх реліквій і артефактів. Вона – талановита злодійка. Здавалося б, що у них може бути спільного? Але одного разу Денні і Лексі об'єднуються, щоб разом вистежити і зловити небезпечного терориста, який фінансує терористичні акти, продаючи крадені історичні артефакти і стародавні коштовності...


Тривалість: 1 серія: ~ 40 хв. (цілком серій: 12)
Перелік серій
01 - The Curse of Cleopatra -- Parts 1 & 2
02 - Code of the Hawaladar
03 - The Secret of Macho Grande
04 - The Brotherhood of Serapis
05 - The Ghost Train of Sierra Perdida
06 - Escape from Casablanca
07 - The Lunchbox of Destiny
08 - The Shadow of Projekt Athena
09 - The Wages of Vengeance
10 - Return of the Queen
11 - Legacy of the Father
12 - The Revenge of Farouk
Якість:
Відео:
кодек:
розмір кадру: 1920 x 1080
бітрейт: 9521 кб/с

Аудіо # 1:
мова: українська
переклад: багатоголосий закадровий
кодек: 2.0
бітрейт: 192 кб/с

Аудіо # 2:
мова: англійська
переклад: оригінал
кодек: 5.1
бітрейт: 640 кб/с

Джерело озвучення:
DniproFilm

Субтитри:
мова: англійська (SDH)
тип: програмні (м'які)
формат: *.srt
Info
Код:
General
Unique ID                                : 6520342621486643392531933750324240488 (0x4E7C5B61FB0EF9A7525A683E31E2068)
Complete name                            : Blood and Treasure S01E01 (2019) 1080p [Ukr_Eng] [Hurtom].
Format                                   :
Format version                           : Version 4
File size                                : 6.05 GiB
Duration                                 : 1 h 23 min
Overall bit rate                         : 10.4 Mb/s
Movie name                               : Кров і скарб (Сезон 1, серія 1) (2019)
Encoded date                             : UTC 2020-09-23 09:58:22
Writing application                      : v50.0.0 ('Awakenings') 64-bit
Writing library                          : libebml v1.4.0 + v1.6.2
Cover                                    : Yes
Attachments                              : cover.jpg

Video
ID                                       : 1
Format                                   : AVC
Format/Info                              : Advanced Video Codec
Format profile                           : [email protected]
Format settings                          : CABAC / 4 Ref Frames
Format settings, CABAC                   : Yes
Format settings, Reference frames        : 4 frames
Codec ID                                 : V_MPEG4/ISO/AVC
Duration                                 : 1 h 23 min
Bit rate                                 : 9 521 kb/s
Width                                    : 1 920 pixels
Height                                   : 1 080 pixels
Display aspect ratio                     : 16:9
Frame rate mode                          : Constant
Frame rate                               : 24.000 FPS
Color space                              : YUV
Chroma subsampling                       : 4:2:0
Bit depth                                : 8 bits
Scan type                                : Progressive
Bits/(Pixel*Frame)                       : 0.191
Stream size                              : 5.56 GiB (92%)
Language                                 : English
Default                                  : Yes
Forced                                   : No
Color range                              : Limited
Color primaries                          : BT.709
Transfer characteristics                 : BT.709
Matrix coefficients                      : BT.709

Audio #1
ID                                       : 2
Format                                   : AC-3
Format/Info                              : Audio Coding 3
Commercial name                          : Dolby Digital
Codec ID                                 : A_AC3
Duration                                 : 1 h 23 min
Bit rate mode                            : Constant
Bit rate                                 : 192 kb/s
Channel(s)                               : 2 channels
Channel layout                           : L R
Sampling rate                            : 48.0 kHz
Frame rate                               : 31.250 FPS (1536 SPF)
Compression mode                         : Lossy
Stream size                              : 115 MiB (2%)
Language                                 : Ukrainian
Service kind                             : Complete Main
Default                                  : Yes
Forced                                   : Yes

Audio #2
ID                                       : 3
Format                                   : E-AC-3
Format/Info                              : Enhanced AC-3
Commercial name                          : Dolby Digital Plus
Codec ID                                 : A_EAC3
Duration                                 : 1 h 23 min
Bit rate mode                            : Constant
Bit rate                                 : 640 kb/s
Channel(s)                               : 6 channels
Channel layout                           : L R C LFE Ls Rs
Sampling rate                            : 48.0 kHz
Frame rate                               : 31.250 FPS (1536 SPF)
Compression mode                         : Lossy
Stream size                              : 383 MiB (6%)
Language                                 : English
Service kind                             : Complete Main
Default                                  : No
Forced                                   : No

Text
ID                                       : 4
Format                                   : UTF-8
Codec ID                                 : S_TEXT/UTF8
Codec ID/Info                            : UTF-8 Plain Text
Duration                                 : 1 h 22 min
Bit rate                                 : 79 b/s
Count of elements                        : 1562
Stream size                              : 48.2 KiB (0%)
Title                                    : SDH
Language                                 : English
Default                                  : No
Forced                                   : No

Скріншоти









Джерело:


Авторський реліз (завантажувати можна без реєстрації)
 Трекер:    Зареєстрований   

Завантажити / скачати серіал українською



відео для новачків



 Зареєстрований:   2020-09-24 15:47
 Розмір:   42.78 GB 
 Оцінка серіалу:   10/10 (Голосів: 8)
   
Ваш часовий пояс: GMT + 2 Години

Нова тема   Відповісти