Елементарно (Сезон 7) / Elementary (Season 7) (2019) 1080p Ukr/Eng | sub Eng

Нові коментарі

Нова тема   Відповісти
Автор Повідомлення
Anonymous 







2020-09-23 11:03  
Елементарно (Сезон 7) / Elementary (Season 7) (2019) 1080p Ukr/Eng | sub Eng

Елементарно (Сезон 7) / Elementary (Season 7) (2019) 1080p Ukr/Eng | sub Eng
DVD


Жанр: кримінальний, драма, містика
Країна: США



Кінокомпанія: Hill of Beans Productions, Timberman-Beverly Productions, CBS Television Studios
Режисер: Майкл Куеста
Актори: Джонні Лі Міллер, Люсі Лью, Ейдан Куїнн, Джон Майкл Гілл, Лінда Емонд, Роман Блат, Елізабет Масуччі, Даллас Робертс, Менні Перез, Джонатан Волкер

Сюжет:
Британський детектив Шерлок Холмс — колишній наркоман, який був відправлений до Нью-Йорку на лікування у реабілітаційний центр, а після завершення лікування залишився у Брукліні консультантом нью-йоркської поліції. У розслідуваннях йому допомагає його компаньйонка-спостерігачка докторка Джоан Ватсон, яку найняв батько Шерлока.


Тривалість: 1 серія: ~ 45 хв. (цілком серій: 13)
Перелік серій
01 - The Further Adventures
02 - Gutshot
03 - The Price of Admission
04 - Red Light, Green Light
05 - Into the Woods
06 - Command: Delete
07 - From Russia with Drugs
08 - Miss Understood
09 - On the Scent
10 - The Latest Model
11 - Unfriended
12 - Reichenbach Falls
13 - Their Last Bow
Якість:
Відео:
кодек:
розмір кадру: 1920 x 1080
бітрейт: 9119 кб/с

Аудіо # 1:
мова: українська
переклад: багатоголосий закадровий
кодек: 2.0
бітрейт: 192 кб/с

Аудіо # 2:
мова: англійська
переклад: оригінал
кодек: Е- 5.1
бітрейт: 640 кб/с

Джерело озвучення:
DniproFilm

Субтитри:
мова: англійська (Full, SDH)
тип: програмні (м'які)
формат: *.srt
Info
Код:
General
Unique ID                                : 128619525837772331116452228026095199598 (0x60C338394DC07CA49B54F18C6311656E)
Complete name                            : Elementary S07E01 (2019) 1080p [Ukr_Eng] [Hurtom].
Format                                   :
Format version                           : Version 4
File size                                : 2.98 GiB
Duration                                 : 42 min 55 s
Overall bit rate                         : 9 953 kb/s
Movie name                               : Елементарно (Сезон 7, серія 1) (2019)
Encoded date                             : UTC 2020-09-22 17:58:37
Writing application                      : v50.0.0 ('Awakenings') 64-bit
Writing library                          : libebml v1.4.0 + v1.6.2
Cover                                    : Yes
Attachments                              : cover.jpg

Video
ID                                       : 1
Format                                   : AVC
Format/Info                              : Advanced Video Codec
Format profile                           : [email protected]
Format settings                          : CABAC / 4 Ref Frames
Format settings, CABAC                   : Yes
Format settings, Reference frames        : 4 frames
Codec ID                                 : V_MPEG4/ISO/AVC
Duration                                 : 42 min 55 s
Bit rate mode                            : Constant
Bit rate                                 : 9 119 kb/s
Nominal bit rate                         : 10 000 kb/s
Width                                    : 1 920 pixels
Height                                   : 1 080 pixels
Display aspect ratio                     : 16:9
Frame rate mode                          : Constant
Frame rate                               : 23.976 (24000/1001) FPS
Color space                              : YUV
Chroma subsampling                       : 4:2:0
Bit depth                                : 8 bits
Scan type                                : Progressive
Bits/(Pixel*Frame)                       : 0.183
Stream size                              : 2.73 GiB (92%)
Language                                 : English
Default                                  : Yes
Forced                                   : No
Color range                              : Limited
Color primaries                          : BT.709
Transfer characteristics                 : BT.709
Matrix coefficients                      : BT.709

Audio #1
ID                                       : 2
Format                                   : AC-3
Format/Info                              : Audio Coding 3
Commercial name                          : Dolby Digital
Codec ID                                 : A_AC3
Duration                                 : 42 min 55 s
Bit rate mode                            : Constant
Bit rate                                 : 192 kb/s
Channel(s)                               : 2 channels
Channel layout                           : L R
Sampling rate                            : 48.0 kHz
Frame rate                               : 31.250 FPS (1536 SPF)
Compression mode                         : Lossy
Stream size                              : 59.0 MiB (2%)
Language                                 : Ukrainian
Service kind                             : Complete Main
Default                                  : Yes
Forced                                   : Yes

Audio #2
ID                                       : 3
Format                                   : E-AC-3
Format/Info                              : Enhanced AC-3
Commercial name                          : Dolby Digital Plus
Codec ID                                 : A_EAC3
Duration                                 : 42 min 55 s
Bit rate mode                            : Constant
Bit rate                                 : 640 kb/s
Channel(s)                               : 6 channels
Channel layout                           : L R C LFE Ls Rs
Sampling rate                            : 48.0 kHz
Frame rate                               : 31.250 FPS (1536 SPF)
Compression mode                         : Lossy
Stream size                              : 197 MiB (6%)
Language                                 : English
Service kind                             : Complete Main
Default                                  : No
Forced                                   : No

Text #1
ID                                       : 4
Format                                   : UTF-8
Codec ID                                 : S_TEXT/UTF8
Codec ID/Info                            : UTF-8 Plain Text
Duration                                 : 42 min 27 s
Bit rate                                 : 105 b/s
Count of elements                        : 972
Stream size                              : 32.7 KiB (0%)
Language                                 : English
Default                                  : No
Forced                                   : No

Text #2
ID                                       : 5
Format                                   : UTF-8
Codec ID                                 : S_TEXT/UTF8
Codec ID/Info                            : UTF-8 Plain Text
Duration                                 : 42 min 27 s
Bit rate                                 : 105 b/s
Count of elements                        : 974
Stream size                              : 32.7 KiB (0%)
Title                                    : SDH
Language                                 : English
Default                                  : No
Forced                                   : No

Скріншоти












Джерело:


Авторський реліз (завантажувати можна без реєстрації)
 Трекер:    Зареєстрований   

Завантажити / скачати серіал українською



відео для новачків



 Зареєстрований:   2020-09-23 11:03
 Розмір:   39.5 GB 
 Оцінка серіалу:   9.7/10 (Голосів: 7)
   
Masanchick 
Попереджень: 1
Попереджень: 1 


З нами з: 08.04.11
Востаннє: 04.12.20
Повідомлень: 626

2020-09-23 11:11  
Меньший розмір буде?
Electroz 
Відео Гуртом - підтримка та поширення
Відео Гуртом - підтримка та поширення


З нами з: 18.09.14
Востаннє: 03.12.20
Повідомлень: 4220

2020-09-23 11:42  
Український постер
Код:
[url=https://img.hurtom.com/image/CNSC][img]https://img.hurtom.com/i/2020/09/photo_2019-08-23_16-02-04.md.jpg[/img][/url]


Ваш часовий пояс: GMT + 2 Години

Нова тема   Відповісти