Сам удома (Один вдома) / Home Alone (1990) UHD Remux 4K 2160p H.265 HDR 2xUkr/Eng | Sub Ukr/Eng

Нові коментарі

Нова тема   Відповісти
Автор Повідомлення
Premer_Joker 
Частий відвідувач


З нами з: 22.01.13
Востаннє: 16.01.21
Повідомлень: 48

2020-09-23 10:59  
Сам удома (Один вдома) / Home Alone (1990) UHD Remux 4K 2160p H.265 HDR 2xUkr/Eng | Sub Ukr/Eng

Сам удома (Один вдома) / Home Alone (1990) UHD Remux 4K 2160p H.265 HDR 2xUkr/Eng | Sub Ukr/Eng


Жанр: сімейний, різдвяна комедія, пригодницький
Країна: США



Кінокомпанія: Hughes Entertainment, Twentieth Century Fox Film Corporation
Режисер: Кріс Коламбус (Chris Columbus)
Актори: Маколей Калкін (Macaulay Culkin), Джо Пеші (Joe Pesci), Деніел Стерн (Daniel Stern), Джон Герд (John Heard), Кетрін О'Гара (Catherine O'Hara), Джон Кенді (John Candy) та інші

Сюжет:
Батьки забули вдома одного зі своїх численних дітей. Не страшно, коли батьки йдуть в гості до сусідів. Але в цій історії батьки поїхали до Парижу, а Кевін залишився в Америці. Один, хоч і в своєму будинку. Залишившись наодинці, хлопець спочатку зрадів, потім засумував, потім став думати чим би себе зайняти. Довго сумувати не довелось: опустілий будинок привернув увагу пари злодіїв-крадіїв. Маленькому хазяїну довелось вигадувати всілякі хитрощі, щоб захистити помешкання від бандитів.


Тривалість: 01:42:54
Якість: UHD Remux 4K 2160p
Відео:
кодек: H.265 (HEVC)
розмір кадру: 3840 х 2160
бітрейт: 67,7 Мб/с
бітова глибина: 10 біт
кольоровий простір: BT.2020 (HDR)

Аудіо # 1:
мова: українська
переклад: двоголосий закадровий (1+1)
кодек: 5.1
бітрейт: 1511 кб/с

Аудіо # 2:
мова: українська
переклад: багатоголосий закадровий (Новий канал)
кодек: 2.0
бітрейт: 192 кб/с

Аудіо # 3:
мова: англійська
переклад: оригінал
кодек: -HD MA 5.1
бітрейт: 3569 кб/с

Субтитри # 1:
мова: українська (на неперекладенi мiсця)
тип: програмні (м'які)
формат: *.srt

Субтитри # 2:
мова: українська (повнi)
тип: програмні (м'які)
формат: *.srt

Субтитри # 3:
мова: англійська (повнi)
тип: програмні (м'які)
формат: *.srt
Info
General
Unique ID : 112200413614865370645222591931850990729 (0x5469037D9B3767486E5ED389F70CA489)
Complete name : E:\Home Alone.(1990).[Remux.10bit.HDR.2160p].seleZen.
Format :
Format version : Version 4
File size : 52.4 GiB
Duration : 1 h 42 min
Overall bit rate mode : Variable
Overall bit rate : 73.0 Mb/s
Movie name : Home Alone (1990) [Remux | 10bit | HDR | 2160p] seleZen
Encoded date : UTC 2020-10-02 10:55:07
Writing application : v42.0.0 ('Overtime') 64-bit
Writing library : libebml v1.3.10 + v1.5.2

Video
ID : 1
Format : HEVC
Format/Info : High Efficiency Video Coding
Format profile : Main [email protected]@High
HDR format : SMPTE ST 2086, HDR10 compatible
Codec ID : V_MPEGH/ISO/HEVC
Duration : 1 h 42 min
Bit rate : 67.7 Mb/s
Width : 3 840 pixels
Height : 2 160 pixels
Display aspect ratio : 16:9
Frame rate mode : Constant
Frame rate : 23.976 (24000/1001) FPS
Color space : YUV
Chroma subsampling : 4:2:0 (Type 2)
Bit depth : 10 bits
Bits/(Pixel*Frame) : 0.341
Stream size : 48.7 GiB (93%)
Title : Home Alone (1990) [Remux | 10bit | HDR | 2160p] seleZen
Language : English
Default : Yes
Forced : No
Color range : Limited
Color primaries : BT.2020
Transfer characteristics : PQ
Matrix coefficients : BT.2020 non-constant
Mastering display color primaries : Display P3
Mastering display luminance : min: 0.0001 cd/m2, max: 1000 cd/m2

Audio #1
ID : 2
Format :
Format/Info : Digital Theater Systems
Codec ID : A_DTS
Duration : 1 h 42 min
Bit rate mode : Constant
Bit rate : 1 510 kb/s
Channel(s) : 6 channels
Channel layout : C L R Ls Rs LFE
Sampling rate : 48.0 kHz
Frame rate : 93.750 FPS (512 SPF)
Bit depth : 24 bits
Compression mode : Lossy
Stream size : 1.09 GiB (2%)
Title : DVO (1+1) [ 5.1, 1511 кб/с]
Language : Ukrainian
Default : Yes
Forced : No

Audio #2
ID : 3
Format : AC-3
Format/Info : Audio Coding 3
Commercial name : Dolby Digital
Codec ID : A_AC3
Duration : 1 h 42 min
Bit rate mode : Constant
Bit rate : 192 kb/s
Channel(s) : 2 channels
Channel layout : L R
Sampling rate : 48.0 kHz
Frame rate : 31.250 FPS (1536 SPF)
Compression mode : Lossy
Stream size : 141 MiB (0%)
Title : MVO (Новий канал) [ 2.0, 192 кб/с]
Language : Ukrainian
Service kind : Complete Main
Default : No
Forced : No

Audio #3
ID : 4
Format : XLL
Format/Info : Digital Theater Systems
Commercial name : -HD Master Audio
Codec ID : A_DTS
Duration : 1 h 42 min
Bit rate mode : Variable
Bit rate : 3 569 kb/s
Channel(s) : 6 channels
Channel layout : C L R Ls Rs LFE
Sampling rate : 48.0 kHz
Frame rate : 93.750 FPS (512 SPF)
Bit depth : 24 bits
Compression mode : Lossless
Stream size : 2.56 GiB (5%)
Title : Original [-HD 5.1, 3569 кб/с]
Language : English
Default : No
Forced : No

Text #1
ID : 5
Format : UTF-8
Codec ID : S_TEXT/UTF8
Codec ID/Info : UTF-8 Plain Text
Duration : 55 min 13 s
Bit rate : 3 b/s
Count of elements : 26
Stream size : 1.40 KiB (0%)
Title : Forced
Language : Ukrainian
Default : Yes
Forced : No

Text #2
ID : 6
Format : UTF-8
Codec ID : S_TEXT/UTF8
Codec ID/Info : UTF-8 Plain Text
Duration : 1 h 37 min
Bit rate : 85 b/s
Count of elements : 1011
Stream size : 60.9 KiB (0%)
Title : Full
Language : Ukrainian
Default : No
Forced : No

Text #3
ID : 7
Format : UTF-8
Codec ID : S_TEXT/UTF8
Codec ID/Info : UTF-8 Plain Text
Duration : 1 h 38 min
Bit rate : 47 b/s
Count of elements : 1034
Stream size : 33.9 KiB (0%)
Title : Full
Language : English
Default : No
Forced : No

Menu
00:00:00.000 : en:Глава 01
00:03:47.060 : en:Глава 02
00:05:46.680 : en:Глава 03
00:08:49.279 : en:Глава 04
00:11:28.730 : en:Глава 05
00:13:43.239 : en:Глава 06
00:19:27.458 : en:Глава 07
00:25:08.173 : en:Глава 08
00:31:16.041 : en:Глава 09
00:35:56.654 : en:Глава 10
00:41:09.550 : en:Глава 11
00:51:22.663 : en:Глава 12
00:57:38.580 : en:Глава 13
01:03:27.637 : en:Глава 14
01:06:33.656 : en:Глава 15
01:13:43.836 : en:Глава 16
01:15:13.217 : en:Глава 17
01:19:27.054 : en:Глава 18
01:22:51.341 : en:Глава 19
01:26:00.072 : en:Глава 20
01:28:45.070 : en:Глава 21
01:33:32.232 : en:Глава 22
01:37:58.289 : en:Глава 23
01:39:06.065 : en:Глава 24
Скріншоти
Торент оновлено. Замiнив дорiжку вiд 1+1 на .


Джерело: &

Особиста оцінка: 10 - без зайвих вагань рекомендую всім!



Золотий реліз (завантажене не впливає на рейтинг)
 Трекер:    Зареєстрований   

Завантажити / скачати фільм українською



відео для новачків



 Зареєстрований:   2020-10-02 14:38
 Розмір:   52.45 GB 
 Оцінка фільму:   10/10 (Голосів: 14)
   
trofum911 
Поважний учасник


З нами з: 31.01.12
Востаннє: 16.01.21
Повідомлень: 178

2020-09-23 19:28  
Один вдома у 4K HDR. Вау, тре зацінити )).
Є в планах другу випустити в 4К?

Premer_Joker 
Частий відвідувач


З нами з: 22.01.13
Востаннє: 16.01.21
Повідомлень: 48

2020-09-23 20:08  
trofum911
Поки що немає інформації

sirkon10 
Свій


З нами з: 13.05.12
Востаннє: 17.01.21
Повідомлень: 61

2020-09-29 21:38  
Назва файлу посилається на москальський selezen. Сам файл містить аудіо доріжку "НовЫй канал"
Це як?

Premer_Joker 
Частий відвідувач


З нами з: 22.01.13
Востаннє: 16.01.21
Повідомлень: 48

2020-09-30 09:23  
sirkon10 написано:
Назва файлу посилається на москальський selezen

Тому що релiз вiд нього. Якщо покажете де брати UHD релiзи вiд спiввiдчизникiв, буду щиро вдячний.

Цитата:
Сам файл містить аудіо доріжку "НовЫй канал"

Перепрошую, на це не звернув уваги.

Hanway 
Відео Гуртом - запис з ТБ
Відео Гуртом - запис з ТБ


З нами з: 20.05.11
Востаннє: 17.01.21
Повідомлень: 724

2020-10-01 19:17  
Озвучення Нового ж є у зі злитих зі студії чистих голосів
Premer_Joker 
Частий відвідувач


З нами з: 22.01.13
Востаннє: 16.01.21
Повідомлень: 48

2020-10-02 14:40  
Hanway
Дякую, замiнив на кращий звук.

sanyokfuriv 
Свій


З нами з: 05.07.11
Востаннє: 16.01.21
Повідомлень: 91

2020-10-02 16:17  
Є хтось хто дивився цю версію на 4К HDR телевізорі? Є якісь зміни в кращу сторону в порівнянні з 1080р , чи лише перенасичені кольори та відтінки і більша зернистість картинки ?
migelius 
Свій


З нами з: 29.02.08
Востаннє: 16.01.21
Повідомлень: 113

2020-10-02 17:30  
sanyokfuriv
Я завантажив раніше з іншого джерела і був розчарований. Картинка ні чим не краща за 1080.

sanyokfuriv 
Свій


З нами з: 05.07.11
Востаннє: 16.01.21
Повідомлень: 91

2020-10-02 17:51  
https://youtu.be/00wcSFI8iAc

Не знаю наскільки можна довіряти джерелу з ютубу вище, але там нова 4к версія все ж таки краща на мій погляд ,хоча і не у всіх випадках. Втім, такий матеріал потрібно оцінювати виключно на дорогих телевізорах для більш об'єктивної оцінки якості зображення.

Premer_Joker 
Частий відвідувач


З нами з: 22.01.13
Востаннє: 16.01.21
Повідомлень: 48

2020-10-02 21:00  
migelius
Я також не помiтив великої рiзницi. Та i сам фiльм не той, котрий дивишся за ради надчiткого зображення. Для мене тут важлива атмосфера рiздва та улюбленi актори.

2bill 
Поважний учасник


З нами з: 31.12.08
Востаннє: 12.01.21
Повідомлень: 194

2020-12-11 15:25  
Дякую за реліз, скріншоти не передають зображення в HDR. Якість помітно краща за 1080p. Особливо зверніть увагу на світло, тіні, віддзеркалення. Як згадаєш що в 90их дивився по ефірному ТБ на радянському "Електроні" і зараз ремастер в 2160p HDR...
Patriot1980 
Новенький


З нами з: 26.07.14
Востаннє: 16.01.21
Повідомлень: 13

2020-12-24 19:27  
Велике прохання до релізерів, якщо вже додаєте доріжку то додавайте такуж в AC 3, оскільки телевізори просто не бачать доріжок
M0on75e1l 
Новенький


З нами з: 10.12.11
Востаннє: 17.01.21
Повідомлень: 8

2020-12-26 01:10  
Дякую за те, що ви є!
Patriot1980 
Новенький


З нами з: 26.07.14
Востаннє: 16.01.21
Повідомлень: 13

2020-12-30 00:40  
Кому потрібен звук 5.1 багатоголосий Новий канал, то його можна узяти у цій роздачі
https://toloka.to/t31172
витягуєте з допомогою VirtualDub та перемуксовуєте, звук підходить чудово, скачував для себе, перевірено

clavaykraini 
Свій


З нами з: 16.05.14
Востаннє: 16.01.21
Повідомлень: 124

2021-01-05 03:20  
Patriot1980 написано:
Велике прохання до релізерів, якщо вже додаєте доріжку то додавайте такуж в AC 3, оскільки телевізори просто не бачать доріжок

І так все скрізь в , хіба мало? Давно вже треба через плеєри дивитись, або купувати TV Sony, якщо кіно цікавитесь.

Ваш часовий пояс: GMT + 2 Години

Нова тема   Відповісти