Чемпіонат Англії 2020/21 | Челсі - Ліверпуль | 2 тур | Setanta Sports (20.09.2020) 720p

Нові коментарі

Нова тема   Відповісти
Останній раз роздавалося misamisk (2020-10-20)
Автор Повідомлення
misamisk 
Частий відвідувач


З нами з: 16.10.17
Востаннє: 22.10.20
Повідомлень: 34

2020-09-22 18:02  
Чемпіонат Англії 2020/21 | Челсі - Ліверпуль | 2 тур | Setanta Sports (20.09.2020) 720p

Чемпіонат Англії 2020/21 | Челсі - Ліверпуль | 2 тур | Setanta Sports (20.09.2020) 720p


Телеканал: Setanta Sports Ukraine
Опис:
Матч відбувся 20 вересня 2020 року у Лондоні на "Стемфорд Брідж"

Матч обслуговували:
Рефері: Пол Тірні
Асистенти рефері: Деніел Кук, Константін Хатцідакіс
Четвертий арбітр: Стюарт Атвелл
VAR: Майкл Олівер
Асистент VAR: Сіан Мессі-Еліс

Коментатор: Дмитро Джулай

Примітка. Матч записувався із повторного показу, інфографіка із статистикою і найкращими моментами першого тайму відсутня, також трансляція обрізана на початку до стартових складів не з моєї вини


Тривалість: 01:42:22
Якість:
Відео:
кодек:
розмір кадру: 1280 x 720
бітрейт: 4000 кб/с

Аудіо:
мова: українська
кодек: 2.0
бітрейт: 320 кб/с
Стартові склади
Info
General
Unique ID : 193046504729465106827103383758609385816 (0x913B678787BBE6B1CC348A6316C10958)
Complete name : /Users/misha.yaremenko/Movies/EPL.Matchday2.Chelsea-Liverpool.20.09.2020..
Format :
Format version : Version 4
File size : 3.09 GiB
Duration : 1 h 42 min
Overall bit rate mode : Variable
Overall bit rate : 4 323 kb/s
Movie name : Chelsea - Liverpool
Encoded date : UTC 2020-09-22 14:31:04
Writing application : v24.0.0 ('Beyond The Pale') 64-bit
Writing library : libebml v1.3.6 + v1.4.9

Video
ID : 1
Format : AVC
Format/Info : Advanced Video Codec
Format profile : [email protected]
Format settings : CABAC / 2 Ref Frames
Format settings, CABAC : Yes
Format settings, Reference frames : 2 frames
Format settings, GOP : M=1, N=25
Codec ID : V_MPEG4/ISO/AVC
Duration : 1 h 42 min
Bit rate mode : Variable
Bit rate : 4 000 kb/s
Maximum bit rate : 768 kb/s
Width : 1 280 pixels
Height : 720 pixels
Display aspect ratio : 16:9
Frame rate mode : Constant
Frame rate : 29.970 (30000/1001) FPS
Original frame rate : 25.000 FPS
Color space : YUV
Chroma subsampling : 4:2:0
Bit depth : 8 bits
Scan type : Progressive
Bits/(Pixel*Frame) : 0.145
Stream size : 2.86 GiB (93%)
Title : Chelsea - Liverpool
Language : Ukrainian
Default : Yes
Forced : No

Audio
ID : 2
Format : LC
Format/Info : Advanced Audio Codec Low Complexity
Codec ID : A_AAC-2
Duration : 1 h 42 min
Bit rate : 320 kb/s
Channel(s) : 2 channels
Channel layout : L R
Sampling rate : 44.1 kHz
Frame rate : 43.066 FPS (1024 SPF)
Compression mode : Lossy
Stream size : 234 MiB (7%)
Title : Commentaries by Dmytro Dzhulay
Language : Ukrainian
Default : Yes
Forced : No
Скріншоти
Особиста оцінка: 0 - не дивився


 Трекер:    Зареєстрований   

Завантажити / скачати торрент



відео для новачків



 Зареєстрований:   2020-09-22 20:26
 Розмір:   3.09 GB 
 Оцінка:   9.7/10 (Голосів: 3)
   
Ваш часовий пояс: GMT + 2 Години

Нова тема   Відповісти